Тик / The Tick / Сезон: 1 / Серии: 1-6 из 6 (Уолли Пфистер) [2017, США, Комедия, пародия, фантастика, WEBRip 720p] DVO (Gears Media) + Original

 Статистика раздачи 
Размер: 3.67 ГБ   |  Зарегистрирован: 20 янв 2018, 19:37   |   .torrent скачан: 0 раз
Сидеров: 2  [ 0 байт/сек ]     Личеров: 2  [ 0 байт/сек ]  
  
Аватара пользователя
 
Раздал: 90.26 ГБ
Скачал: 15.93 ГБ
Ратио: 6.635
Сообщения: 6547
Стаж: 8 лет 4 месяца 21 день

Тик / The Tick
Год выпуска: 2017
Страна: США
Жанр: Комедия, пародия, фантастика
Продолжительность: ~ 00:30:00
Перевод: Профессиональный (двухголосый закадровый) Gears Media
Режиссёр: Уолли Пфистер
В ролях:Питер Серафинович, Гриффин Ньюман, Вэлори Керри, Брендан Хайнс, Джеки Эрл Хейли
Описание:Тик — голубоглазый борец с преступностью. Он является самым честным супергероем среди своих собратьев. Он прыгает по крышам небоскребов. В нем сила природы, он бесстрашен, не признает поражений, его не возможно остановить (в большинстве случаев), он несокрушим, полон достоинства и обаяния, и у него золотое сердце.
Ссылка на предыдущие и альтернативные раздачи: http://rutracker.org/forum/tracker.php?f=2366&nm=The+Tick
Сэмпл: http://multi-up.com/1166562
Качество: WEBRip 720p
Формат: MKV
Видео: X264, 1280x640 at 23.976 fps, ~3000 kbps avg
Аудио1: Russian, AC3, 48 kHz, 2 ch, 384 kbps
Аудио2: English, EAC3, 48 kHz, 6 ch, 640 kbps
Субтитры: нет
Реклама: аудио (два раза, в начале и конце, по 12 сек.)
Format : Matroska
Format version : Version 4 / Version 2
File size : 654 MiB
Duration : 25 min 57 s
Overall bit rate : 3 523 kb/s
Encoded date : UTC 2017-08-30 16:41:28
Writing application : mkvmerge v15.0.0 ('Duel with the Devil') 64-bit
Writing library : libebml v1.3.5 + libmatroska v1.4.5
Video
ID : 1
Format : AVC
Format/Info : Advanced Video Codec
Format profile : High@L4.1
Format settings, CABAC : Yes
Format settings, RefFrames : 5 frames
Codec ID : V_MPEG4/ISO/AVC
Duration : 25 min 57 s
Bit rate : 2 497 kb/s
Width : 1 280 pixels
Height : 640 pixels
Display aspect ratio : 2.000
Frame rate mode : Constant
Frame rate : 23.976 (24000/1001) FPS
Color space : YUV
Chroma subsampling : 4:2:0
Bit depth : 8 bits
Scan type : Progressive
Bits/(Pixel*Frame) : 0.127
Stream size : 463 MiB (71%)
Writing library : x264 core 152 r2851 ba24899
Encoding settings : cabac=1 / ref=5 / deblock=1:-3:-3 / analyse=0x3:0x113 / me=umh / subme=8 / psy=1 / psy_rd=1.00:0.15 / mixed_ref=1 / me_range=16 / chroma_me=1 / trellis=2 / 8x8dct=1 / cqm=0 / deadzone=21,11 / fast_pskip=0 / chroma_qp_offset=-2 / threads=12 / lookahead_threads=2 / sliced_threads=0 / nr=0 / decimate=1 / interlaced=0 / bluray_compat=0 / constrained_intra=0 / bframes=3 / b_pyramid=2 / b_adapt=1 / b_bias=0 / direct=3 / weightb=1 / open_gop=0 / weightp=2 / keyint=240 / keyint_min=23 / scenecut=40 / intra_refresh=0 / rc_lookahead=50 / rc=crf / mbtree=1 / crf=18.0 / qcomp=0.60 / qpmin=0 / qpmax=69 / qpstep=4 / ip_ratio=1.40 / aq=3:0.80
Language : English
Default : Yes
Forced : No
Audio #1
ID : 2
Format : AC-3
Format/Info : Audio Coding 3
Format settings, Endianness : Big
Codec ID : A_AC3
Duration : 25 min 57 s
Bit rate mode : Constant
Bit rate : 384 kb/s
Channel(s) : 2 channels
Channel positions : Front: L R
Sampling rate : 48.0 kHz
Frame rate : 31.250 FPS (1536 SPF)
Bit depth : 16 bits
Compression mode : Lossy
Stream size : 71.3 MiB (11%)
Title : Gears Media
Language : Russian
Service kind : Complete Main
Default : Yes
Forced : Yes
Audio #2
ID : 3
Format : E-AC-3
Format/Info : Enhanced Audio Coding 3
Format settings, Endianness : Big
Codec ID : A_EAC3
Duration : 25 min 57 s
Bit rate mode : Constant
Bit rate : 640 kb/s
Channel(s) : 6 channels
Channel positions : Front: L C R, Side: L R, LFE
Sampling rate : 48.0 kHz
Frame rate : 187.500 FPS (256 SPF)
Compression mode : Lossy
Stream size : 119 MiB (18%)
Language : English
Service kind : Complete Main
Default : No
Forced : No
Внимание! Раздача ведётся путём добавления новых серий; при каждом добавлении создаётся новый торрент. Чтобы начать докачку новой серии, пользователям необходимо сделать следующее:
(1) остановить скачивание,
(2) удалить старый торрент у себя из клиента (старые серии удалять не надо),
(3) скачать новый торрент и запустить его у себя в клиенте вместо старого, при этом указать клиенту путь в старую папку куда и должно происходить скачивание новых серий.
Ваш клиент при этом должен произвести хеширование (проверку) старой папки (если не производит сам - помогите ему сделать это), и будет докачивать только те серии которых у вас ещё нет. Старые серии при этом не удаляются, а продолжают раздаваться!
Eсли вы уже удалили старые серии, то предотвратить повторную закачку старых серий можно, отжав галочку в соответствующих местах при запуске нового торрента. По возможности, желательно не удалять старые серии как можно дольше чтобы релизёр не столько продолжал раздавать старые серии, а смог сконцентрироваться на новых.
Не забывайте говорить Спасибо. Не уходите с раздачи!   
Торрент: Зарегистрирован [20 янв 2018, 19:37] Для скачивания .torrent
необходима регистрация
Или скачать с помощью
MediaGet
Статус:
Проверен
 
.torrent скачан: 0 раз
Хэш: 3733a1a17770afa01f8d20aa002480e186ded54a
Размер: 3.67 ГБ (3 944 944 047 байт)
   Стать Автором раздачи
   
Цитата
  • Похожие торренты
    Ответы
    Просмотры
    Последнее сообщение

Вернуться в Тик / The Tick

Кто сейчас на конференции

Сейчас эту тему просматривают: нет зарегистрированных пользователей и гости: 1