Форс-мажоры / Костюмы в законе / Suits / Сезон: 3 / Серии: 1-16 из 16 (Кевин Брэй, Джон Скотт, Майкл Смит) [2013, США, драма, WEB-DL 720p] Original + Rus Subs (To4ka Translate) + Eng Subs

 Статистика раздачи 
Размер: 21.75 ГБ   |  Зарегистрирован: 20 янв 2018, 19:36   |   .torrent скачан: 2 раз
Сидеров: 6  [ 0 байт/сек ]     Личеров: 6  [ 0 байт/сек ]  
  
Аватара пользователя
 
Раздал: 90.26 ГБ
Скачал: 15.93 ГБ
Ратио: 6.635
Сообщения: 6547
Стаж: 8 лет 8 месяцев 20 дней

Форс-мажоры / Костюмы в законе / Suits

Год выпуска: 2013
Страна: США
Жанр: драма
Продолжительность: ~47 мин/серия
Перевод: Субтитры (To4ka Translate)
Режиссёр: Кевин Брэй, Джон Скотт, Майкл Смит
В ролях: Гэбриел Махт, Патрик Адамс, Рик Хоффман, Меган Маркл, Сара Рафферти, Джина Торрес, Макс Топплин, Дэвид Костабайл, Ванесса Рэй, Том Липински
Описание:
Убегая после неудачной попытки сбыта наркотиков, юрист-самоучка Майк Росс, выдающий себя за выпускника Гарварда, попадает на собеседование к одному из лучших адвокатов по сделкам Нью-Йорка Харви Спектру.
Устав от скучных соискателей, мечтающих «верой и правдой служить букве закона», Харви рискует и нанимает Майка: у парня врожденный талант и фотографическая память. Так рождается один из самых неоднозначных, но, в то же время, и самых блестящих тандемов законников на Манхэттене.

Альтернативные раздачи сериала | 3 сезона
Сэмпл: http://multi-up.com/886166
Качество: WEB-DL 720p
Контейнер: MKV
Видео: AVC, 1280x720 (16/9), 23.976 fps, 4051 Kbps (0.183 bit/pixel)
Аудио: English, AC-3, 48.0 KHz, 6 ch, 384 Kbps
Субтитры: Русские (полные), softsub, встроенные, переводчик: To4ka Translate
Субтитры: Английские (полные), softsub, встроенные
16.07.2013 – 01. Соглашение
23.07.2013 – 02. Я хочу, чтобы ты хотел меня
30.07.2013 – 03. Неоконченные дела
06.08.2013 – 04. Конфликт интересов
13.08.2013 – 05. Тень сомнения
20.08.2013 – 06. Былые времена
27.08.2013 – 07. Она моя
03.09.2013 – 08. Конец игры
10.09.2013 – 09. Вероломство
17.09.2013 – 10. Останься
06.03.2014 – 11. Погребенные секреты
13.03.2014 – 12. Прошлое не изменишь
20.03.2014 – 13. Спорный вопрос
27.03.2014 – 14. Дела сердечные
03.04.2014 – 15. Знай, когда отступить
10.04.2014 – 16. Выхода нет
Код:
Код: Выделить всё
Format                                   : Matroska
Format version                           : Version 4 / Version 2
File size                                : 1.51 GiB
Duration                                 : 47mn 53s
Overall bit rate                         : 4 525 Kbps
Encoded date                             : UTC 2013-07-17 08:35:55
Writing application                      : mkvmerge v6.0.0 ('Coming Up For Air') built on Jan 20 2013 09:52:00
Writing library                          : libebml v1.3.0 + libmatroska v1.4.0
Video
ID                                       : 1
Format                                   : AVC
Format/Info                              : Advanced Video Codec
Format profile                           : High@L3.1
Format settings, CABAC                   : No
Format settings, ReFrames                : 2 frames
Codec ID                                 : V_MPEG4/ISO/AVC
Duration                                 : 47mn 53s
Bit rate                                 : 4 051 Kbps
Width                                    : 1 280 pixels
Height                                   : 720 pixels
Display aspect ratio                     : 16:9
Frame rate mode                          : Constant
Frame rate                               : 23.976 fps
Color space                              : YUV
Chroma subsampling                       : 4:2:0
Bit depth                                : 8 bits
Scan type                                : Progressive
Bits/(Pixel*Frame)                       : 0.183
Stream size                              : 1.36 GiB (90%)
Title                                    : ..:: TEAM ELiTE ::..
Language                                 : English
Default                                  : Yes
Forced                                   : No
Color primaries                          : BT.709
Transfer characteristics                 : BT.709
Matrix coefficients                      : BT.709
Audio
ID                                       : 2
Format                                   : AC-3
Format/Info                              : Audio Coding 3
Mode extension                           : CM (complete main)
Format settings, Endianness              : Big
Codec ID                                 : A_AC3
Duration                                 : 47mn 53s
Bit rate mode                            : Constant
Bit rate                                 : 384 Kbps
Channel(s)                               : 6 channels
Channel positions                        : Front: L C R, Side: L R, LFE
Sampling rate                            : 48.0 KHz
Bit depth                                : 16 bits
Compression mode                         : Lossy
Stream size                              : 132 MiB (8%)
Title                                    : ENGLiSH AUDiO AC3 6 chnls 384 kbps
Language                                 : English
Default                                  : Yes
Forced                                   : No
Text #1
ID                                       : 3
Format                                   : UTF-8
Codec ID                                 : S_TEXT/UTF8
Codec ID/Info                            : UTF-8 Plain Text
Language                                 : Russian
Default                                  : Yes
Forced                                   : No
Text #2
ID                                       : 4
Format                                   : UTF-8
Codec ID                                 : S_TEXT/UTF8
Codec ID/Info                            : UTF-8 Plain Text
Language                                 : English
Default                                  : No
Forced                                   : No

Не забывайте говорить Спасибо. Не уходите с раздачи!   
Торрент: Зарегистрирован [20 янв 2018, 19:36]
Статус:
Проверен
 
.torrent скачан: 2 раз
Хэш: 7cb60725fd16ec1a8cdac3afd1e62a5a588ae0a2
Размер: 21.75 ГБ (23 356 596 851 байт)
   Стать Автором раздачи
   
Цитата

Вернуться в Форс-мажоры / Suits

Кто сейчас на конференции

Сейчас эту тему просматривают: нет зарегистрированных пользователей и гости: 1