Форс-мажоры / Костюмы в законе / Suits / Сезон: 1 / Серии: 1-12 (12) (Кевин Брэй, Джон Скотт, Майкл Смит) [2011, США, драма, WEB-DL 720p] Original + Rus subs (Notabenoid)

 Статистика раздачи 
Размер: 16.74 ГБ   |  Зарегистрирован: 20 янв 2018, 19:30   |   .torrent скачан: 1 раз
Сидеров: 0  [ 0 байт/сек ]     Личеров: 1  [ 0 байт/сек ]  
  
Аватара пользователя
 
Раздал: 90.26 ГБ
Скачал: 15.93 ГБ
Ратио: 6.635
Сообщения: 6547
Стаж: 8 лет 8 месяцев 22 дня



Костюмы / Suits

Год выпуска: 2011
Страна: США | USA
Жанр: драма
Продолжительность: ~00:43:00 (Пилот - 01:12:00)
Перевод: отсутствует
Русские субтитры: есть
Субтитры: Русские (notabenoid)
Режиссёр: Кевин Брэй, Джон Скотт
В ролях: Патрик Дж. Адамс, Гэбриел Махт, Меган Маркл, Джина Торрес, Рик Хоффман
Описание: В центре сюжета замечательный, но немотивированный молодой человек, так и не закончивший учебу в колледже. У него есть все необходимые качества, чтобы стать хорошим адвокатом, кроме диплома. Но благодаря знаниям законов улицы и напористым, не всегда честным действиям его нанимает влиятельная юридическая фирма из Манхэттена.
Ссылка на предыдущие и альтернативные раздачи: http://rutracker.org/forum/tracker.php?f=189,2366,842&nm=Suits+2011
Качество: WEB-DL 720p
Формат: MKV
Видео кодек: H.264
Аудио кодек: AC3
Видео: AVC, 1280x720 (16:9), 23,976 fps, 3865 Кбит/с, 0.175 bit/pixel
Аудио: 48 kHz, AC3 Dolby Digital, 6 ch, ~384 kbps
Внимание! Раздача ведётся путём добавления новых серий; при каждом добавлении создаётся новый торрент. Чтобы начать докачку новой серии, пользователям необходимо сделать следующее:
(1) остановить скачивание,
(2) удалить старый торрент у себя из клиента (старые серии удалять не надо),
(3) скачать новый торрент и запустить его у себя в клиенте вместо старого, при этом указать клиенту путь в старую папку куда и должно происходить скачивание новых серий.
Ваш клиент при этом должен произвести хеширование (проверку) старой папки (если не производит сам - помогите ему сделать это), и будет докачивать только те серии которых у вас ещё нет. Старые серии при этом не удаляются, а продолжают раздаваться!
Eсли вы уже удалили старые серии, то предотвратить повторную закачку старых серий можно, отжав галочку в соответствующих местах при запуске нового торрента. По возможности, желательно не удалять старые серии как можно дольше чтобы релизёр не столько продолжал раздавать старые серии, а смог сконцентрироваться на новых.

01. Pilot
02. Errors and Omissions
03. Inside Track
04. Bail Out
05. Dirty Little Secrets
06. Tricks of the Trade
07. Play The Man
08. Identity Crisis
09. Undefeated
10. The Shelf Life
11. Rules Of The Game
12. Dog Fight


General
Unique ID : 188711477285866026898527714956777331347 (0x8DF8822CC1D56DB7BD2B4FE700679A93)
Complete name : Z:\Suits - Season 1 [720p] WEB-DL\suits.s01e01.web-dl.720p\Suits.S01E01.Pilot.720p.WEB-DL.DD5.1.H.264-TB.mkv
Format : Matroska
File size : 2.19 GiB
Duration : 1h 12mn
Overall bit rate : 4 335 Kbps
Movie name : Suits S01E01 by TeddyBlue
Encoded date : UTC 2011-06-24 21:10:01
Writing application : mkvmerge v4.4.0 ('Die Wiederkehr') built on Oct 31 2010 21:52:48
Writing library : libebml v1.0.0 + libmatroska v1.0.0
Video
ID : 1
Format : AVC
Format/Info : Advanced Video Codec
Format profile : High@L3.1
Format settings, CABAC : No
Format settings, ReFrames : 2 frames
Codec ID : V_MPEG4/ISO/AVC
Duration : 1h 12mn
Bit rate : 3 865 Kbps
Width : 1 280 pixels
Height : 720 pixels
Display aspect ratio : 16:9
Frame rate : 23.976 fps
Color space : YUV
Chroma subsampling : 4:2:0
Bit depth : 8 bits
Scan type : Progressive
Bits/(Pixel*Frame) : 0.175
Stream size : 1.95 GiB (89%)
Language : English
Color primaries : BT.709-5, BT.1361, IEC 61966-2-4, SMPTE RP177
Transfer characteristics : BT.709-5, BT.1361
Matrix coefficients : BT.709-5, BT.1361, IEC 61966-2-4 709, SMPTE RP177
Audio
ID : 2
Format : AC-3
Format/Info : Audio Coding 3
Mode extension : CM (complete main)
Codec ID : A_AC3
Duration : 1h 12mn
Bit rate mode : Constant
Bit rate : 384 Kbps
Channel(s) : 6 channels
Channel positions : Front: L C R, Side: L R, LFE
Sampling rate : 48.0 KHz
Bit depth : 16 bits
Compression mode : Lossy
Stream size : 199 MiB (9%)
Language : English


Не забывайте говорить Спасибо. Не уходите с раздачи!   
Торрент: Зарегистрирован [20 янв 2018, 19:30]
Статус:
Проверен
 
.torrent скачан: 1 раз
Хэш: 6e06f78cc40fdb60a8e31f32ccdf75787bb36943
Размер: 16.74 ГБ (17 970 473 595 байт)
   Стать Автором раздачи
   
Цитата

Вернуться в Форс-мажоры / Suits

Кто сейчас на конференции

Сейчас эту тему просматривают: нет зарегистрированных пользователей и гости: 1