Форс-мажоры / Костюмы в законе / Suits / Сезон: 2 / Серии: 1-16 из 16 (Кевин Брэй, Джон Скотт, Майкл Смит) [2012, Драма, комедия, Bdrip 1080p] DVO (NewStudio), MVO (Первый канал) + Original + Subs (Rus, Eng)

 Статистика раздачи 
Размер: 82.8 ГБ   |  Зарегистрирован: 20 янв 2018, 19:30   |   .torrent скачан: 32 раз
Сидеров: 10  [ 0 байт/сек ]     Личеров: 3  [ 0 байт/сек ]  
  
Аватара пользователя
 
Раздал: 90.26 ГБ
Скачал: 15.93 ГБ
Ратио: 6.635
Сообщения: 6547
Стаж: 8 лет 8 месяцев 22 дня


Форс-мажоры / Костюмы в законе / Suits

Год выпуска: 2012
Страна: США
Жанр: Драма, комедия
Продолжительность: ~ 00:43:00
Перевод: Двухголосый закадровый (NewStudio)
Перевод: Многоголосый закадровый (Первый канал)
Режиссёр: Кевин Брэй, Джон Скотт, Майкл Смит
В ролях: Гэбриел Махт, Патрик Дж. Адамс, Рик Хоффман, Меган Маркл, Сара Рафферти, Джина Торрес, Ванесса Рэй, Том Липински и др.
Описание: Убегая после неудачной попытки сбыта наркотиков, юрист-самоучка Майк Росс, выдающий себя за выпускника Гарварда, попадает на собеседование к одному из лучших адвокатов по сделкам Нью-Йорка Харви Спектру.
Устав от скучных соискателей, мечтающих «верой и правдой служить букве закона», Харви рискует и нанимает Майка: у парня врожденный талант и фотографическая память. Так рождается один из самых неоднозначных, но, в то же время, и самых блестящих тандемов законников на Манхэттене.
Релизер: АКТЕР aka CEBEPu2D
Рип от Ntb
За звук: спасибо Skazhutin-у (бывший HDClub)
Все раздачи сериала

Качество: Bdrip 1080p
Формат: MKV
Видео: H.264, 1920x1080, 23.976 fps, ~15,4 Mbps, ~0.309 bit/pixel
Аудио 1 Rus: AC3, 48 kHz, 6 ch, 384 kbps |(NewStudio)|
Аудио 2 Rus: AC3, 48 kHz, 2 ch, 192 kbps |(Первый канал)|
Аудио 3 Eng: DTS, 48 kHz, 6 ch, 1509 kbps |Original|
Субтитры: русские (Notabenoid), английские
01. She Knows / Она знает
02. The Choice / Выбор
03. Meet the New Boss / Познакомьтесь с новым боссом
04. Discovery / Открытие
05. Break Point / Переломный момент
06. All In / Ва-банк
07. Sucker Punch / Удар исподтишка
08. Rewind / Перемотка
09. Asterisk / Астериск
10. High Noon / Занятный денёк
11. Blind-sided / Слабое место
12. Blood in the Water / Запах крови
13. Zane Vs. Zane / Зейн против Зейн
14. He's back / Он вернулся
15. Normandy / Нормандия
16. War / Война
Формат : Matroska
Версия формата : Version 4 / Version 2
Размер файла : 5,44 Гбайт
Продолжительность : 43 м.
Режим общего битрейта : Переменный
Общий поток : 18,1 Мбит/сек
Дата кодирования : UTC 2017-11-15 12:53:35
Программа кодирования : mkvmerge v6.2.0 ('Promised Land') built on Apr 28 2013 12:22:01
Библиотека кодирования : libebml v1.3.0 + libmatroska v1.4.0
Видео
Идентификатор : 1
Формат : AVC
Формат/Информация : Advanced Video Codec
Профиль формата : High@L4.1
Параметр CABAC формата : Да
Параметр ReFrames формата : 4 кадра
Идентификатор кодека : V_MPEG4/ISO/AVC
Продолжительность : 43 м.
Ширина : 1920 пикселей
Высота : 1080 пикселей
Соотношение сторон : 16:9
Режим частоты кадров : Постоянный
Частота кадров : 23,976 кадра/сек
Цветовое пространство : YUV
Субдискретизация насыщенности : 4:2:0
Битовая глубина : 8 бит
Тип развёртки : Прогрессивная
Библиотека кодирования : x264 core 142 r2431+42 c69a006 tMod [8-bit@all X86_64]
Настройки программы : cabac=1 / ref=4 / deblock=1:-3:-3 / analyse=0x3:0x113 / me=umh / subme=10 / psy=1 / fade_compensate=0.00 / psy_rd=0.95:0.03 / mixed_ref=1 / me_range=24 / chroma_me=1 / trellis=2 / 8x8dct=1 / cqm=0 / deadzone=21,11 / fast_pskip=1 / chroma_qp_offset=-3 / threads=12 / lookahead_threads=2 / sliced_threads=0 / nr=0 / decimate=1 / interlaced=0 / bluray_compat=0 / constrained_intra=0 / fgo=0 / bframes=8 / b_pyramid=2 / b_adapt=2 / b_bias=0 / direct=3 / weightb=1 / open_gop=0 / weightp=2 / keyint=250 / keyint_min=23 / scenecut=40 / intra_refresh=0 / rc=crf / mbtree=0 / crf=18.0000 / qcomp=0.60 / qpmin=0:0:0 / qpmax=69:69:69 / qpstep=4 / ip_ratio=1.40 / pb_ratio=1.30 / aq=4:0.80 / aq-sensitivity=10.00 / aq-factor=1.00:1.00:1.00 / aq2=0 / aq3=0
Язык : English
Default : Да
Forced : Нет
Аудио #1
Идентификатор : 2
Формат : AC-3
Формат/Информация : Audio Coding 3
Расширение режима : CM (complete main)
Параметр Endianness формата : Big
Идентификатор кодека : A_AC3
Продолжительность : 43 м.
Вид битрейта : Постоянный
Битрейт : 384 Кбит/сек
Каналы : 6 каналов
Расположение каналов : Front: L C R, Side: L R, LFE
Частота : 48,0 КГц
Битовая глубина : 16 бит
Метод сжатия : С потерями
Размер потока : 118 Мбайт (2%)
Заголовок : NewStudio
Язык : Russian
Default : Да
Forced : Нет
Аудио #2
Идентификатор : 3
Формат : AC-3
Формат/Информация : Audio Coding 3
Расширение режима : CM (complete main)
Параметр Endianness формата : Big
Идентификатор кодека : A_AC3
Продолжительность : 43 м.
Вид битрейта : Постоянный
Битрейт : 192 Кбит/сек
Каналы : 2 канала
Расположение каналов : Front: L R
Частота : 48,0 КГц
Битовая глубина : 16 бит
Метод сжатия : С потерями
Размер потока : 59,1 Мбайт (1%)
Заголовок : Первый канал
Язык : Russian
Default : Нет
Forced : Нет
Аудио #3
Идентификатор : 4
Формат : DTS
Формат/Информация : Digital Theater Systems
Профиль формата : MA / Core
Режим : 16
Параметр Endianness формата : Big
Идентификатор кодека : A_DTS
Продолжительность : 43 м.
Вид битрейта : Переменный
Битрейт : Неизвестно / 1509 Кбит/сек
Каналы : 6 каналов
Расположение каналов : Front: L C R, Side: L R, LFE
Частота : 48,0 КГц
Битовая глубина : 16 бит
Метод сжатия : Без потерь / Lossy
Язык : English
Default : Нет
Forced : Нет
Текст #1
Идентификатор : 5
Формат : UTF-8
Идентификатор кодека : S_TEXT/UTF8
Идентификатор кодека/Информация : UTF-8 Plain Text
Язык : Russian
Default : Нет
Forced : Нет
Текст #2
Идентификатор : 6
Формат : UTF-8
Идентификатор кодека : S_TEXT/UTF8
Идентификатор кодека/Информация : UTF-8 Plain Text
Язык : English
Default : Нет
Forced : Нет
Меню
00:00:00.000 : en:00:00:00.000
00:07:00.337 : en:00:07:00.337
00:15:44.277 : en:00:15:44.277
00:28:02.306 : en:00:28:02.306
00:35:21.286 : en:00:35:21.286
00:42:29.881 : en:00:42:29.881


Советую посмотреть
Suits 1 сезон Bdrip 1080р
Suits 2 сезон Bdrip 1080р
Suits 3 сезон Bdrip 1080р
Family Guy 10 сезон 1080р
PS убедительная просьба скачавших оставаться на раздаче подольше, желательно вечно
Не забывайте говорить Спасибо. Не уходите с раздачи!   
Торрент: Зарегистрирован [20 янв 2018, 19:30]
Статус:
Проверен
 
.torrent скачан: 32 раз
Хэш: 9b81719fafe4306d2e2a52e908b3ab187cdaf8dd
Размер: 82.8 ГБ (88 910 274 234 байт)
   Стать Автором раздачи
   
Цитата
  • Похожие торренты
    Ответы
    Просмотры
    Последнее сообщение

Вернуться в Форс-мажоры / Suits

Кто сейчас на конференции

Сейчас эту тему просматривают: нет зарегистрированных пользователей и гости: 1