Форс-мажоры / Костюмы в законе / Suits / Сезон: 6 / Серии: 1-16 (16) (Антон Кроппер, Кевин Брэй, Майкл Смит) [2016, США, драма, комедия, WEB-DL 1080p] MVO (NewStudio) + Original + Subs (Rus, Eng)

 Статистика раздачи 
Размер: 29.18 ГБ   |  Зарегистрирован: 20 янв 2018, 19:25   |   .torrent скачан: 0 раз
Сидеров: 34  [ 0 байт/сек ]     Личеров: 11  [ 0 байт/сек ]  
  
Аватара пользователя
 
Раздал: 90.26 ГБ
Скачал: 15.93 ГБ
Ратио: 6.635
Сообщения: 6547
Стаж: 8 лет 8 месяцев 20 дней

Форс-мажоры / Костюмы в законе / Suits
Год выпуска: 2016
Страна: США
Жанр: драма, комедия
Продолжительность: 16 х ~42 мин
Перевод: Профессиональный (многоголосый закадровый) NewStudio
Субтитры: Russian (Notabenoid), English
Режиссеры: Антон Кроппер, Кевин Брэй, Майкл Смит, Сильвер Три и др.
Актеры: Гэбриел Махт, Патрик Джей Адамс, Рик Хоффман, Меган Маркл, Сара Рафферти, Джина Торрес, Алома Райт, Уэндел Пирс, Нил Макдонаф, Джон Пайпер-Фергюсон и др.
Описание: В центре сюжета замечательный, но немотивированный молодой человек, так и не закончивший учебу в колледже. У него есть все необходимые качества, чтобы стать хорошим адвокатом, кроме диплома. Но благодаря знаниям законов улицы и напористым, не всегда честным действиям его нанимает влиятельная юридическая фирма из Манхэттена.
Качество: WEB-DL 1080p
Формат: MKV
Видео: 1920x1080 23.976 fps MPEG-4 AVC ~5 mbps
Аудио 1: Russian: 48 kHz, AC3, 5.1, ~384.00 kbps (NewStudio)
Аудио 2: English: 48 kHz, AC3, 5.1, ~384.00 kbps
Субтитры: Russian (Notabenoid), English

За беду (To Trouble)
Счета к оплате (Accounts Payable)
Снова на карте (Back on the Map)
Поворот (Turn)
Доверие (Trust)
Испания (Spain)
Перетрясти деревья (Shake the Trees)
Взаймы у времени (Borrowed Time)
Рука, которая тебя кормит (The Hand That Feeds You)
П. С. Л. (P. S. L.)
Больше ее здесь нет (She's Gone)
Картина (The Painting)
Зубы, нос, зубы (Teeth, Nose, Teeth)
Признание вины (Admission of Guilt)
Кви про кво (Quid Pro Quo)
[*]Профессиональная пригодность (Character and Fitness)
Код: Выделить всё
General
Unique ID                   : 218450232431098725133951951424602637901 (0xA457FC019F1383F1988F807C96F2064D)
Complete name               : Suits.s06e01.1080p.NewStudio.mkv
Format                      : Matroska
Format version              : Version 2
File size                   : 1.63 GiB
Duration                    : 41mn 59s
Overall bit rate            : 5 546 Kbps
Encoded date                : UTC 2016-07-22 13:24:22
Writing application         : mkvmerge v9.2.0 ('Photograph') 64bit
Writing library             : libebml v1.3.3 + libmatroska v1.4.4
Video
ID                          : 1
Format                      : AVC
Format/Info                 : Advanced Video Codec
Format profile              : High@L4
Format settings, CABAC      : Yes
Format settings, ReFrames   : 4 frames
Codec ID                    : V_MPEG4/ISO/AVC
Duration                    : 41mn 59s
Bit rate                    : 4 775 Kbps
Width                       : 1 920 pixels
Height                      : 1 080 pixels
Display aspect ratio        : 16:9
Frame rate mode             : Constant
Frame rate                  : 23.976 (24000/1001) fps
Color space                 : YUV
Chroma subsampling          : 4:2:0
Bit depth                   : 8 bits
Scan type                   : Progressive
Bits/(Pixel*Frame)          : 0.096
Stream size                 : 1.40 GiB (86%)
Language                    : English
Default                     : Yes
Forced                      : No
Color range                 : Limited
Color primaries             : BT.709
Transfer characteristics    : BT.709
Matrix coefficients         : BT.709
Audio #1
ID                          : 2
Format                      : AC-3
Format/Info                 : Audio Coding 3
Mode extension              : CM (complete main)
Format settings, Endianness : Big
Codec ID                    : A_AC3
Duration                    : 41mn 59s
Bit rate mode               : Constant
Bit rate                    : 384 Kbps
Channel(s)                  : 6 channels
Channel positions           : Front: L C R, Side: L R, LFE
Sampling rate               : 48.0 KHz
Frame rate                  : 31.250 fps (1536 spf)
Compression mode            : Lossy
Stream size                 : 115 MiB (7%)
Language                    : Russian
Default                     : Yes
Forced                      : No
Audio #2
ID                          : 3
Format                      : AC-3
Format/Info                 : Audio Coding 3
Mode extension              : CM (complete main)
Format settings, Endianness : Big
Codec ID                    : A_AC3
Duration                    : 41mn 59s
Bit rate mode               : Constant
Bit rate                    : 384 Kbps
Channel(s)                  : 6 channels
Channel positions           : Front: L C R, Side: L R, LFE
Sampling rate               : 48.0 KHz
Frame rate                  : 31.250 fps (1536 spf)
Compression mode            : Lossy
Stream size                 : 115 MiB (7%)
Language                    : English
Default                     : No
Forced                      : No
Text #1
ID                          : 4
Format                      : UTF-8
Codec ID                    : S_TEXT/UTF8
Codec ID/Info               : UTF-8 Plain Text
Duration                    : 40mn 59s
Bit rate                    : 161 bps
Count of elements           : 952
Stream size                 : 48.5 KiB (0%)
Language                    : Russian
Default                     : No
Forced                      : No
Text #2
ID                          : 5
Format                      : UTF-8
Codec ID                    : S_TEXT/UTF8
Codec ID/Info               : UTF-8 Plain Text
Duration                    : 40mn 59s
Bit rate                    : 116 bps
Count of elements           : 975
Stream size                 : 35.0 KiB (0%)
Language                    : English
Default                     : No
Forced                      : No
При каждом добавлении создаётся новый торрент.
Чтобы начать докачку новой серии, пользователям необходимо сделать следующее:Остановить скачивание;
Удалить старый торрент у себя из клиента (старые серии удалять не надо);
[*]Скачать новый торрент и запустить его у себя в клиенте вместо старого, при этом указать клиенту путь в старую папку, куда и должно происходить скачивание новых серий.Ваш клиент при этом должен произвести хеширование (проверку) старой папки (если не производит сам - помогите ему сделать это), и будет докачивать только те серии, которых у вас ещё нет. Старые серии при этом не удаляются, а продолжают раздаваться.
Eсли вы уже удалили старые серии, то предотвратить повторную закачку старых серий можно, сняв галочку в соответствующих местах при запуске нового торрента. По возможности, желательно не удалять старые серии как можно дольше, чтобы релизер не только продолжал раздавать старые серии, но и мог сконцентрироваться на новых.

Раздача без рекламы
Не забывайте говорить Спасибо. Не уходите с раздачи!   
Торрент: Зарегистрирован [20 янв 2018, 19:25]
Статус:
Проверен
 
.torrent скачан: 0 раз
Хэш: 366a1e9e54ec5062abcddad0118d2b96ca3c57c3
Размер: 29.18 ГБ (31 331 448 422 байт)
   Стать Автором раздачи
   
Цитата
  • Похожие торренты
    Ответы
    Просмотры
    Последнее сообщение

Вернуться в Форс-мажоры / Suits

Кто сейчас на конференции

Сейчас эту тему просматривают: нет зарегистрированных пользователей и гости: 1