Хороший доктор / The Good Doctor / Сезон: 1 / Серии: 1-10 из 18 (Сет Гордон, Майк Листо) [2017, США, Драма, WEB-DL 1080p] MVO (NewStudio)

 Статистика раздачи 
Размер: 17.9 ГБ   |  Зарегистрирован: 20 янв 2018, 18:46   |   .torrent скачан: 1 раз
Сидеров: 17  [ 0 байт/сек ]     Личеров: 5  [ 0 байт/сек ]  
  
Аватара пользователя
 
Раздал: 90.26 ГБ
Скачал: 15.93 ГБ
Ратио: 6.635
Сообщения: 6550
Стаж: 8 лет 3 месяца 23 дня

Хороший доктор / The Good Doctor
Год выпуска: 2017
Страна: США
Жанр: Драма
Продолжительность: ~43 мин.
Перевод: Профессиональный (многоголосый закадровый) NewStudio
Режиссёр: Сет Гордон, Майк Листо
В ролях: Фредди Хаймор, Николас Гонсалес, Антония Томас, Чуку Моду, Бо Гарретт, Хилл Харпер, Ричард Шифф, Грэм Верчир, Ирен Кэн, Ребекка Хусейн и др.
Описание: История молодого талантливого врача с синдромом саванта, обладающего уникальными способностями — невероятной памятью и фантастической чувствительностью к проблемам, вспыхивающим внутри человеческого организма. Герой становится блестящим хирургом, несмотря на то, что в личностном плане его развитие соответствует развитию десятилетнего ребёнка…
Ссылка на предыдущие и альтернативные раздачи: http://rutracker.org/forum/tracker.php?f=2366&nm=good%20doctor
Сэмпл: https://sendfile.su/1365641
Качество: WEB-DL 1080p
Контейнер: MKV
Видео: AVC/H.264, 1920x1080, ~5067 Kbps
Аудио: AC3, 384 kbps, 6 ch, 48 kHz - русский, многоголосый закадровый
Аудио 2: AC3, 384 kbps, 6 ch, 48 kHz - английский
Субтитры: русские (на надписи), английские
Реклама: отсутствует
1. Burnt Food / Подгоревшая еда
2. Mount Rushmore / Гора Рашмор
3. Oliver / Оливер
4. Pipes / Трубы
5. Point Three Percent / Ноль целых, три десятых процента
6. Not Fake / Не фальшивая
7. 22 Steps / 22 шага
8. Apple / Яблоко
9. Intangibles / Неуловимое
10. Sacrifice / Жертва
Общее
Уникальный идентификатор : 221149721026195382879277504048090043214 (0xA65FE311E3BB7B1997360225883FD34E)
Полное имя : The Good Doctor - Хороший доктор. Сезон 1. NewStudio.1080p\The.Good.Doctor.s01e01.WEB-DL.1080p.NewStudio.mkv
Формат : Matroska
Версия формата : Version 4 / Version 2
Размер файла : 1,80 Гбайт
Продолжительность : 43 м. 24 с.
Общий поток : 5953 Кбит/сек
Название фильма : The Good Doctor
Дата кодирования : UTC 2017-09-30 10:58:31
Программа кодирования : mkvmerge v6.9.1 ('Blue Panther') 64bit built on Apr 18 2014 18:23:38
Библиотека кодирования : libebml v1.3.0 + libmatroska v1.4.1
Видео
Идентификатор : 1
Формат : AVC
Формат/Информация : Advanced Video Codec
Профиль формата : High@L4
Настройки формата : CABAC / 4 Ref Frames
Параметр CABAC формата : Да
Параметр RefFrames формата : 4 кадра
Идентификатор кодека : V_MPEG4/ISO/AVC
Продолжительность : 43 м. 24 с.
Битрейт : 5067 Кбит/сек
Ширина : 1920 пикселей
Высота : 1080 пикселей
Соотношение сторон : 16:9
Режим частоты кадров : Постоянный
Частота кадров : 23,976 кадра/сек
Цветовое пространство : YUV
Субдискретизация насыщенности : 4:2:0
Битовая глубина : 8 бит
Тип развёртки : Прогрессивная
Бит/(Пиксели*Кадры) : 0.102
Размер потока : 1,54 Гбайт (85%)
Язык : English
Default : Да
Forced : Нет
Цветовой диапазон : Limited
Основные цвета : BT.709
Характеристики трансфера : BT.709
Коэффициенты матрицы : BT.709
Аудио #1
Идентификатор : 2
Формат : AC-3
Формат/Информация : Audio Coding 3
Параметр Endianness формата : Big
Идентификатор кодека : A_AC3
Продолжительность : 43 м. 24 с.
Вид битрейта : Постоянный
Битрейт : 384 Кбит/сек
Каналы : 6 каналов
Расположение каналов : Front: L C R, Side: L R, LFE
Частота : 48,0 КГц
Частота кадров : 31,250 кадров/сек (1536 SPF)
Битовая глубина : 16 бит
Метод сжатия : С потерями
Размер потока : 119 Мбайт (6%)
Язык : Russian
ServiceKind/String : Complete Main
Default : Да
Forced : Нет
Аудио #2
Идентификатор : 3
Формат : AC-3
Формат/Информация : Audio Coding 3
Параметр Endianness формата : Big
Идентификатор кодека : A_AC3
Продолжительность : 43 м. 24 с.
Вид битрейта : Постоянный
Битрейт : 384 Кбит/сек
Каналы : 6 каналов
Расположение каналов : Front: L C R, Side: L R, LFE
Частота : 48,0 КГц
Частота кадров : 31,250 кадров/сек (1536 SPF)
Битовая глубина : 16 бит
Метод сжатия : С потерями
Размер потока : 119 Мбайт (6%)
Язык : English
ServiceKind/String : Complete Main
Default : Нет
Forced : Нет
Текст #1
Идентификатор : 4
Формат : UTF-8
Идентификатор кодека : S_TEXT/UTF8
Идентификатор кодека/Информация : UTF-8 Plain Text
Язык : Russian
Default : Да
Forced : Нет
Текст #2
Идентификатор : 5
Формат : UTF-8
Идентификатор кодека : S_TEXT/UTF8
Идентификатор кодека/Информация : UTF-8 Plain Text
Язык : English
Default : Нет
Forced : Нет



Не забывайте говорить Спасибо. Не уходите с раздачи!   
Торрент: Зарегистрирован [20 янв 2018, 18:46] Для скачивания .torrent
необходима регистрация
Или скачать с помощью
MediaGet
Статус:
Проверен
 
.torrent скачан: 1 раз
Хэш: ad0b1dbaa88314339cef566174cb03c1f1dd7ccb
Размер: 17.9 ГБ (19 216 457 281 байт)
   Стать Автором раздачи
   
Цитата
  • Похожие торренты
    Ответы
    Просмотры
    Последнее сообщение

Вернуться в Хороший доктор / The Good Doctor

Кто сейчас на конференции

Сейчас эту тему просматривают: нет зарегистрированных пользователей и гости: 1