Американский вандал / American Vandal / Сезон: 1 / Серии: 1-8 из 8 (Тони Ясенда / Tony Yacenda) [2017, США, комедия, детектив, WEBRip 1080p] DVO (Кубик в кубе) + Original Eng + Eng Subs

 Статистика раздачи 
Размер: 11.44 ГБ   |  Зарегистрирован: 20 янв 2018, 18:44   |   .torrent скачан: 390 раз
Сидеров: 42  [ 0 байт/сек ]     Личеров: 12  [ 0 байт/сек ]  
  
Аватара пользователя
 
Раздал: 90.26 ГБ
Скачал: 15.93 ГБ
Ратио: 6.635
Сообщения: 6542
Стаж: 9 лет 5 месяцев 10 дней

Американский вандал - Первый сезонAmerican Vandal - The First Season
Год выпуска: 2017
Страна: США
Производство: Netflix
Жанр: комедия, детектив
Продолжительность: 00:30:00
Перевод: Профессиональный (двухголосый закадровый) Кубик в кубе
Режиссёр: Тони Ясенда / Tony Yacenda
В ролях: Тайлер Альварес, Гриффин Глюк, Джимми Татро, Камилла Хайд, Эдуардо Франко, Лукас Гейдж, Джессика Хуарес, Лу Уилсон, Камилла Рамзи, Калум Уорти, Джи Ханнелиус, Коди Вей-Хо Ли, Саксон Шарбино, Габриела Фрескес и др.
Описание:
Вся школа в шоке: кто-то нарисовал гигантские члены на 27 автомобилях на местной парковке. Главный подозреваемый — местный хулиган, помешанный на рисовании пенисов. Однако правда ли это он, или его пытаются подставить?
Все раздачи | КиноПоиск | IMDb | SampleРекламы нет

Качество: WEBRip 1080p (QOQ)
Формат: MKV
Видео: x264, 1920x1080 (16:9), 23.976 fps, ~5360 kbps avg, 0.099 bit/pixel
Аудио #1: Russian 48.0 KHz, AC3, 3/2 (L,C,R,l,r) + LFE ch, ~384.00 kbps avg |Кубик в кубе|
Аудио #2: English 48.0 KHz, AC3, 3/2 (L,C,R,l,r) + LFE ch, ~384.00 kbps avg |Original|
Субтитры: английские (SDH)
Сборка - whip93.
Работа со звуком - messafan, whip93.
General
Unique ID : 177076341064081899190690508523913955541 (0x8537A9AB47D41D1FA499D5844B5D48D5)
Complete name : F:\American Vandal - The Complete 1st Season - whip93\American.Vandal.S01E01.Hard.Facts.Vandalism.and.Vulgarity.1080p.WEBRip.DD5.1.x264.-whip93.mkv
Format : Matroska
Format version : Version 4 / Version 2
File size : 1.45 GiB
Duration : 35mn 36s
Overall bit rate mode : Variable
Overall bit rate : 5 828 Kbps
Movie name : Американский вандал | American Vandal (S01E01) - Release by whip93
Encoded date : UTC 2017-10-22 11:11:58
Writing application : mkvmerge v6.1.0 ('Old Devil') built on Mar 4 2013 09:10:42
Writing library : libebml v1.3.0 + libmatroska v1.4.0
Video
ID : 1
Format : AVC
Format/Info : Advanced Video Codec
Format profile : Main@L4
Format settings, CABAC : Yes
Format settings, ReFrames : 3 frames
Codec ID : V_MPEG4/ISO/AVC
Duration : 35mn 36s
Bit rate mode : Variable
Bit rate : 4 944 Kbps
Nominal bit rate : 5 360 Kbps
Maximum bit rate : 8 040 Kbps
Width : 1 920 pixels
Height : 1 080 pixels
Display aspect ratio : 16:9
Frame rate mode : Constant
Frame rate : 23.976 fps
Color space : YUV
Chroma subsampling : 4:2:0
Bit depth : 8 bits
Scan type : Progressive
Bits/(Pixel*Frame) : 0.099
Stream size : 1.23 GiB (85%)
Title : Mastered by whip93
Writing library : x264 core 118
Encoding settings : cabac=1 / ref=3 / deblock=1:0:0 / analyse=0x1:0x111 / me=umh / subme=10 / psy=1 / psy_rd=1.00:0.00 / mixed_ref=1 / me_range=24 / chroma_me=1 / trellis=2 / 8x8dct=0 / cqm=0 / deadzone=21,11 / fast_pskip=1 / chroma_qp_offset=-2 / threads=6 / sliced_threads=0 / nr=0 / decimate=1 / interlaced=0 / bluray_compat=0 / constrained_intra=0 / bframes=2 / b_pyramid=0 / b_adapt=2 / b_bias=0 / direct=3 / weightb=1 / open_gop=0 / weightp=2 / keyint=48 / keyint_min=25 / scenecut=0 / intra_refresh=0 / rc_lookahead=0 / rc=2pass / mbtree=1 / bitrate=5360 / ratetol=1.0 / qcomp=0.50 / qpmin=6 / qpmax=51 / qpstep=4 / cplxblur=20.0 / qblur=0.5 / vbv_maxrate=8040 / vbv_bufsize=10720 / nal_hrd=vbr / ip_ratio=1.40 / aq=1:1.00
Language : English
Default : Yes
Forced : No
Audio #1
ID : 2
Format : AC-3
Format/Info : Audio Coding 3
Mode extension : CM (complete main)
Format settings, Endianness : Big
Codec ID : A_AC3
Duration : 35mn 36s
Bit rate mode : Constant
Bit rate : 384 Kbps
Channel(s) : 6 channels
Channel positions : Front: L C R, Side: L R, LFE
Sampling rate : 48.0 KHz
Compression mode : Lossy
Stream size : 97.8 MiB (7%)
Title : DVO (Кубик в кубе)
Language : Russian
Default : Yes
Forced : No
Audio #2
ID : 3
Format : AC-3
Format/Info : Audio Coding 3
Mode extension : CM (complete main)
Format settings, Endianness : Big
Codec ID : A_AC3
Duration : 35mn 36s
Bit rate mode : Constant
Bit rate : 384 Kbps
Channel(s) : 6 channels
Channel positions : Front: L C R, Side: L R, LFE
Sampling rate : 48.0 KHz
Compression mode : Lossy
Stream size : 97.8 MiB (7%)
Title : Original
Language : English
Default : No
Forced : No
Text
ID : 4
Format : UTF-8
Codec ID : S_TEXT/UTF8
Codec ID/Info : UTF-8 Plain Text
Title : Original (SDH)
Language : English
Default : No
Forced : No

Не забывайте говорить Спасибо. Не уходите с раздачи!   
Торрент: Зарегистрирован [20 янв 2018, 18:44]
Статус:
Проверен
 
.torrent скачан: 390 раз
Хэш: bf3bea484a7c92aa6e95f86fe757a1ed04014bb9
Размер: 11.44 ГБ (12 282 380 784 байт)
   Стать Автором раздачи
   
Цитата
  • Похожие торренты
    Ответы
    Просмотры
    Последнее сообщение

Вернуться в Американский вандал / American Vandal

Кто сейчас на конференции

Сейчас эту тему просматривают: нет зарегистрированных пользователей и гости: 1