(Rock'n'Roll, Country) [CD] Jerry Lee Lewis - Country Class (1976) / Country Memories (1977) - 2016, FLAC (tracks+.cue), lossless

 Статистика раздачи 
Размер: 403.01 МБ   |  Зарегистрирован: 19 июн 2018, 21:34   |   .torrent скачан: 0 раз
Сидеров: 0  [ 0 байт/сек ]     Личеров: 1  [ 0 байт/сек ]  
  
Аватара пользователя
Я на сайте
 
Раздал: 2.75 ТБ
Скачал: 89.62 ГБ
Ратио: 31.394
Сообщения: 229338
Стаж: 3 года 6 месяцев 16 дней

Jerry Lee Lewis - Country Class (1976) / Country Memories (1977)
Жанр: Rock'n'Roll, Country
Носитель: CD
Год издания: 2016
Издатель (лейбл): BGO Records
Номер по каталогу: BGOCD1222
Аудиокодек: FLAC (*.flac)
Тип рипа: tracks+.cue
Битрейт аудио: lossless
Продолжительность: 69:09
Источник (релизер): ruskaval
Наличие сканов в содержимом раздачи: да
Треклист:
Country Class (1976)
01. Let's Put It Back Together Again (3:20)
02. No One Will Ever Know (3:05)
03. You Belong To Me (2:55)
04. I Sure Miss Those Good Old TImes (3:44)
05. The Old Country Chruch (2:52)
06. After The Fool You've Made Of Me (2:14)
07. Jerry Lee's Rock & Roll Revival Show (2:50)
08. Wedding Bells (2:40)
09. Only Love Can Get You In My Door (4:29)
10. The One Rose That's Left In My Heart (4:41)
11. The Closest Thing To You (3:17)
Country Memories (1977)
12. Middle Age Cracy (3:56)
13. Let's Say Goodbye Like We Said Hello (In A Friendly Kind Of Way) (3:05)
14. Who's Sorry Now (3:46)
15. Jealous Heart (2:19)
16. Georgia On My Mind (3:32)
17. Come On In (2:35)
18. As Long As We Live (2:16)
19. (You'd Think By Now) I'd Be Over You (2:43)
20. Country Memories (3:05)
21. What's So Good About Goodbye (3:15)
22. Tennessee Saturday Night (2:31)
 
Two fine Jerry Lee Lewis albums from 1976 and 1977 The recordings produced the US Country hits ‘Come On In’, ‘Let’s Put It Back Together Again’ and ‘Middle Age Crazy’. Jerry Lee’s longtime relationship with Mercury Records and producer Jerry Kennedy was coming to an end at the time of these recordings, and Lewis was being affected by health problems. However, Kennedy coaxed performances from Lewis, resulting in these very successful albums. Digitally remastered and slipcased, and with extensive new notes.
Jerry Lee Lewis is a remarkable talent, and a man who beyond all odds has outlasted most all those he started out with on Sun Records; all the big names have gone, Elvis Presley, Roy Orbison, Carl Perkins, Johnny Cash, Charlie Rich and more besides.
A winner on his day performing country music, he could out sing most straight ahead country acts. Never mind those who crossed over. Jerry Lee was another class back when these recordings (produced by Jerry Kennedy) were made (mid-1970s), and the same could be said for his formative years and those made not long after those found here.
Among the finest renditions on the album as Lewis places his own unique stamp on the material include a ‘killer’ version of the Hank Williams’ covered “Wedding Bells” (which though credited to Claude Boone, word has it was written by Arthur Q. Smith; aka James Pritchett) and the two tracks that round off Country Class “The One Rose That’s Left In My Heart” and with him in great voice tender love ballad “The Closest Thing To You I Can Find”.
Yes, it does have other top class country fare beforehand. As in “Let’s Put it Back Together” (Foster, Rice) and with solos at Lewis’ request from Lloyd Green on pedal steel guitar and Kenneth Lovelace on fiddle perfectly beckoned. Others of note include “No One Will Ever Know” (Foree, Rose) and “I Sure Miss Those Good Old Times” (Mack Vickery) plus “The Old Country Church” comes over nicely too. He gets to share a few childhood memories as he add-libs a little. Great country choir! Loose and breezy “After the Fool You’ve Made Of Me” sounds different to most anything I have heard him do. I love it too as Charlie McCoy’s harmonica is joined by some of the smartest picking on the whole collection. As for “Jerry Lee’s Rock & Roll Revival Show” it is a potent mixture of rock’n’roll and boogie, and though excellent, it pretty much stands on its own among the country numbers.
He opens Country Memories with one of the finest songs of that period, “Middle Age Crazy” (Sonny Throckmorton) and it finds Lewis at the top of his game and it doesn’t stop there as it’s followed in the running order by “Let’s Say Goodbye Like We Said Hello (In A Friendly Kind Of Way)” and there are others that have Jerry Lee and his Nashville studio musicians make hay.
It is well worth noting the players too, as with the first album it has pedal steel guitar greats Green and Pete Drake (the latter survived for the second record but Green’s slot went to Weldon Myrick), Hargus ‘Pig’ Robbins, Harold Bradley, Ray Edenton, Buddy Harman, Bob Moore, Chip Young and of course, Lewis’ band buddy, fiddle player Lovelace. His versions of “Jealous Heart”, “Georgia On My Mind” and mid-paced “As Long As We Live” plus heart-tugging ode “(You’d Think By Now) I’d Be Over You” are excellent. With lots of freedom for Jerry Lee to rattle the ivories “Country Memories” is also a bright little number. His rendition of Bob McDill’s “What’s so Good About Goodbye” to the accompaniment of pedal steel, strings and beautiful harmony vocals it is like the song is lifted up on angel’s wings (or at least thermals). Closer “Tennessee Saturday Night” is a Jerry Lee boogie cut, enough said!

Код: Выделить всё
Exact Audio Copy V1.3 from 2. September 2016
EAC extraction logfile from 10. July 2017, 20:37
Jerry Lee Lewis / Country Class / Country Memories
Used drive  : TSSTcorpCDDVDW SH-224BB   Adapter: 1  ID: 0
Read mode               : Secure
Utilize accurate stream : Yes
Defeat audio cache      : Yes
Make use of C2 pointers : No
Read offset correction                      : 6
Overread into Lead-In and Lead-Out          : No
Fill up missing offset samples with silence : Yes
Delete leading and trailing silent blocks   : No
Null samples used in CRC calculations       : Yes
Used interface                              : Native Win32 interface for Win NT & 2000
Gap handling                                : Appended to previous track
Used output format              : User Defined Encoder
Selected bitrate                : 768 kBit/s
Quality                         : High
Add ID3 tag                     : No
Command line compressor         : C:\Program Files (x86)\Exact Audio Copy\Flac\flac.exe
Additional command line options : -8 -V -T "ARTIST=%artist%" -T "TITLE=%title%" -T "ALBUM=%albumtitle%" -T "DATE=%year%" -T "TRACKNUMBER=%tracknr%" -T "TOTALTRACKS=%numtracks%" -T "GENRE=%genre%" -T "ALBUMARTIST=%albumartist%" -T "ALBUM ARTIST=%albumartist%" -T "COMMENT=EAC Secure Mode, Test & Copy, AccurateRip, FLAC -8" %source%
TOC of the extracted CD
     Track |   Start  |  Length  | Start sector | End sector
    ---------------------------------------------------------
        1  |  0:00.00 |  3:20.02 |         0    |    15001
        2  |  3:20.02 |  3:05.03 |     15002    |    28879
        3  |  6:25.05 |  2:54.49 |     28880    |    41978
        4  |  9:19.54 |  3:43.48 |     41979    |    58751
        5  | 13:03.27 |  2:51.39 |     58752    |    71615
        6  | 15:54.66 |  2:13.70 |     71616    |    81660
        7  | 18:08.61 |  2:50.11 |     81661    |    94421
        8  | 20:58.72 |  2:40.07 |     94422    |   106428
        9  | 23:39.04 |  4:28.53 |    106429    |   126581
       10  | 28:07.57 |  4:41.22 |    126582    |   147678
       11  | 32:49.04 |  3:16.66 |    147679    |   162444
       12  | 36:05.70 |  3:56.19 |    162445    |   180163
       13  | 40:02.14 |  3:05.01 |    180164    |   194039
       14  | 43:07.15 |  3:45.60 |    194040    |   210974
       15  | 46:53.00 |  2:19.15 |    210975    |   221414
       16  | 49:12.15 |  3:32.36 |    221415    |   237350
       17  | 52:44.51 |  2:34.59 |    237351    |   248959
       18  | 55:19.35 |  2:15.40 |    248960    |   259124
       19  | 57:35.00 |  2:43.01 |    259125    |   271350
       20  | 60:18.01 |  3:04.51 |    271351    |   285201
       21  | 63:22.52 |  3:15.08 |    285202    |   299834
       22  | 66:37.60 |  2:30.55 |    299835    |   311139
Track  1
     Filename C:\Rips\Jerry Lee Lewis - Country Class (1976) & Country Memories (1977) [FLAC] (2on1 2016)\01 - Let's Put It Back Together Again.wav
     Pre-gap length  0:00:02.00
     Peak level 94.4 %
     Extraction speed 1.6 X
     Track quality 100.0 %
     Test CRC EA374B54
     Copy CRC EA374B54
     Accurately ripped (confidence 1)  [556BC06C]  (AR v2)
     Copy OK
Track  2
     Filename C:\Rips\Jerry Lee Lewis - Country Class (1976) & Country Memories (1977) [FLAC] (2on1 2016)\02 - No One Will Ever Know.wav
     Pre-gap length  0:00:04.20
     Peak level 94.4 %
     Extraction speed 1.8 X
     Track quality 100.0 %
     Test CRC CCD70C11
     Copy CRC CCD70C11
     Accurately ripped (confidence 1)  [0CCDC6E7]  (AR v2)
     Copy OK
Track  3
     Filename C:\Rips\Jerry Lee Lewis - Country Class (1976) & Country Memories (1977) [FLAC] (2on1 2016)\03 - You Belong To Me.wav
     Pre-gap length  0:00:03.67
     Peak level 89.1 %
     Extraction speed 1.8 X
     Track quality 100.0 %
     Test CRC 39D6B957
     Copy CRC 39D6B957
     Accurately ripped (confidence 1)  [623968DA]  (AR v2)
     Copy OK
Track  4
     Filename C:\Rips\Jerry Lee Lewis - Country Class (1976) & Country Memories (1977) [FLAC] (2on1 2016)\04 - I Sure Miss Those Good Old TImes.wav
     Pre-gap length  0:00:03.70
     Peak level 94.4 %
     Extraction speed 2.1 X
     Track quality 100.0 %
     Test CRC 301223E0
     Copy CRC 301223E0
     Accurately ripped (confidence 1)  [A0716D48]  (AR v2)
     Copy OK
Track  5
     Filename C:\Rips\Jerry Lee Lewis - Country Class (1976) & Country Memories (1977) [FLAC] (2on1 2016)\05 - The Old Country Chruch.wav
     Pre-gap length  0:00:04.52
     Peak level 94.4 %
     Extraction speed 2.1 X
     Track quality 100.0 %
     Test CRC 0ACE7C8A
     Copy CRC 0ACE7C8A
     Accurately ripped (confidence 1)  [C5446D7E]  (AR v2)
     Copy OK
Track  6
     Filename C:\Rips\Jerry Lee Lewis - Country Class (1976) & Country Memories (1977) [FLAC] (2on1 2016)\06 - After The Fool You've Made Of Me.wav
     Pre-gap length  0:00:04.44
     Peak level 94.4 %
     Extraction speed 2.1 X
     Track quality 100.0 %
     Test CRC 0641591A
     Copy CRC 0641591A
     Accurately ripped (confidence 1)  [52B68900]  (AR v2)
     Copy OK
Track  7
     Filename C:\Rips\Jerry Lee Lewis - Country Class (1976) & Country Memories (1977) [FLAC] (2on1 2016)\07 - Jerry Lee's Rock & Roll Revival Show.wav
     Pre-gap length  0:00:03.70
     Peak level 89.1 %
     Extraction speed 2.3 X
     Track quality 100.0 %
     Test CRC 78E18A00
     Copy CRC 78E18A00
     Accurately ripped (confidence 1)  [0E7E1BA1]  (AR v2)
     Copy OK
Track  8
     Filename C:\Rips\Jerry Lee Lewis - Country Class (1976) & Country Memories (1977) [FLAC] (2on1 2016)\08 - Wedding Bells.wav
     Pre-gap length  0:00:02.67
     Peak level 89.1 %
     Extraction speed 2.3 X
     Track quality 100.0 %
     Test CRC 781DBD13
     Copy CRC 781DBD13
     Accurately ripped (confidence 1)  [D0553B26]  (AR v2)
     Copy OK
Track  9
     Filename C:\Rips\Jerry Lee Lewis - Country Class (1976) & Country Memories (1977) [FLAC] (2on1 2016)\09 - Only Love Can Get You In My Door.wav
     Pre-gap length  0:00:03.69
     Peak level 86.1 %
     Extraction speed 2.6 X
     Track quality 100.0 %
     Test CRC B30AFCF8
     Copy CRC B30AFCF8
     Accurately ripped (confidence 1)  [313347C5]  (AR v2)
     Copy OK
Track 10
     Filename C:\Rips\Jerry Lee Lewis - Country Class (1976) & Country Memories (1977) [FLAC] (2on1 2016)\10 - The One Rose That's Left In My Heart.wav
     Pre-gap length  0:00:06.48
     Peak level 87.0 %
     Extraction speed 2.8 X
     Track quality 100.0 %
     Test CRC C1ED4924
     Copy CRC C1ED4924
     Accurately ripped (confidence 1)  [C0D574AD]  (AR v2)
     Copy OK
Track 11
     Filename C:\Rips\Jerry Lee Lewis - Country Class (1976) & Country Memories (1977) [FLAC] (2on1 2016)\11 - The Closest Thing To You.wav
     Pre-gap length  0:00:04.30
     Peak level 87.0 %
     Extraction speed 1.9 X
     Track quality 99.9 %
     Test CRC 1590E3A0
     Copy CRC 1590E3A0
     Accurately ripped (confidence 1)  [E0BEA56D]  (AR v2)
     Copy OK
Track 12
     Filename C:\Rips\Jerry Lee Lewis - Country Class (1976) & Country Memories (1977) [FLAC] (2on1 2016)\12 - Middle Age Cracy.wav
     Pre-gap length  0:00:03.62
     Peak level 85.1 %
     Extraction speed 2.6 X
     Track quality 100.0 %
     Test CRC 29286C4D
     Copy CRC 29286C4D
     Accurately ripped (confidence 1)  [D55A1236]  (AR v2)
     Copy OK
Track 13
     Filename C:\Rips\Jerry Lee Lewis - Country Class (1976) & Country Memories (1977) [FLAC] (2on1 2016)\13 - Let's Say Goodbye Like We Said Hello (In A Friendly Kind Of Way).wav
     Pre-gap length  0:00:03.33
     Peak level 85.1 %
     Extraction speed 2.6 X
     Track quality 100.0 %
     Test CRC 0066E788
     Copy CRC 0066E788
     Accurately ripped (confidence 1)  [1C2C92A1]  (AR v2)
     Copy OK
Track 14
     Filename C:\Rips\Jerry Lee Lewis - Country Class (1976) & Country Memories (1977) [FLAC] (2on1 2016)\14 - Who's Sorry Now.wav
     Pre-gap length  0:00:04.28
     Peak level 85.1 %
     Extraction speed 2.5 X
     Track quality 100.0 %
     Test CRC BFD0F8E7
     Copy CRC BFD0F8E7
     Accurately ripped (confidence 1)  [FFBB4BAB]  (AR v2)
     Copy OK
Track 15
     Filename C:\Rips\Jerry Lee Lewis - Country Class (1976) & Country Memories (1977) [FLAC] (2on1 2016)\15 - Jealous Heart.wav
     Pre-gap length  0:00:05.08
     Peak level 85.1 %
     Extraction speed 1.4 X
     Track quality 100.0 %
     Test CRC CDE3C784
     Copy CRC CDE3C784
     Accurately ripped (confidence 1)  [A247D2D2]  (AR v2)
     Copy OK
Track 16
     Filename C:\Rips\Jerry Lee Lewis - Country Class (1976) & Country Memories (1977) [FLAC] (2on1 2016)\16 - Georgia On My Mind.wav
     Pre-gap length  0:00:04.26
     Peak level 85.1 %
     Extraction speed 2.4 X
     Track quality 99.9 %
     Test CRC 2E660E14
     Copy CRC 2E660E14
     Accurately ripped (confidence 1)  [3D99234D]  (AR v2)
     Copy OK
Track 17
     Filename C:\Rips\Jerry Lee Lewis - Country Class (1976) & Country Memories (1977) [FLAC] (2on1 2016)\17 - Come On In.wav
     Pre-gap length  0:00:03.64
     Peak level 80.3 %
     Extraction speed 3.1 X
     Track quality 100.0 %
     Test CRC 4B1BBD96
     Copy CRC 4B1BBD96
     Accurately ripped (confidence 1)  [B61D0FFE]  (AR v2)
     Copy OK
Track 18
     Filename C:\Rips\Jerry Lee Lewis - Country Class (1976) & Country Memories (1977) [FLAC] (2on1 2016)\18 - As Long As We Live.wav
     Pre-gap length  0:00:03.42
     Peak level 80.3 %
     Extraction speed 3.1 X
     Track quality 100.0 %
     Test CRC A51C7CC1
     Copy CRC A51C7CC1
     Accurately ripped (confidence 1)  [E9176722]  (AR v2)
     Copy OK
Track 19
     Filename C:\Rips\Jerry Lee Lewis - Country Class (1976) & Country Memories (1977) [FLAC] (2on1 2016)\19 - (You'd Think By Now) I'd Be Over You.wav
     Pre-gap length  0:00:03.70
     Peak level 80.3 %
     Extraction speed 2.1 X
     Track quality 99.9 %
     Test CRC 5DF56E1C
     Copy CRC 5DF56E1C
     Accurately ripped (confidence 1)  [5BB7B2F7]  (AR v2)
     Copy OK
Track 20
     Filename C:\Rips\Jerry Lee Lewis - Country Class (1976) & Country Memories (1977) [FLAC] (2on1 2016)\20 - Country Memories.wav
     Pre-gap length  0:00:03.62
     Peak level 80.3 %
     Extraction speed 3.3 X
     Track quality 100.0 %
     Test CRC D1FAEA44
     Copy CRC D1FAEA44
     Accurately ripped (confidence 1)  [EEC62D13]  (AR v2)
     Copy OK
Track 21
     Filename C:\Rips\Jerry Lee Lewis - Country Class (1976) & Country Memories (1977) [FLAC] (2on1 2016)\21 - What's So Good About Goodbye.wav
     Pre-gap length  0:00:04.43
     Peak level 80.3 %
     Extraction speed 3.4 X
     Track quality 100.0 %
     Test CRC 3C4B8705
     Copy CRC 3C4B8705
     Accurately ripped (confidence 1)  [C946CDB2]  (AR v2)
     Copy OK
Track 22
     Filename C:\Rips\Jerry Lee Lewis - Country Class (1976) & Country Memories (1977) [FLAC] (2on1 2016)\22 - Tennessee Saturday Night.wav
     Pre-gap length  0:00:04.02
     Peak level 75.8 %
     Extraction speed 1.9 X
     Track quality 99.9 %
     Test CRC 785957E0
     Copy CRC 785957E0
     Accurately ripped (confidence 1)  [42E88E58]  (AR v2)
     Copy OK
All tracks accurately ripped
No errors occurred
End of status report
---- CUETools DB Plugin V2.1.6
[CTDB TOCID: .8Ow5NYsbAo72maAntWBvMRzg5k-] found
Submit result: .8Ow5NYsbAo72maAntWBvMRzg5k- has been confirmed
Track | CTDB Status
  1   | (1/1) Accurately ripped
  2   | (1/1) Accurately ripped
  3   | (1/1) Accurately ripped
  4   | (1/1) Accurately ripped
  5   | (1/1) Accurately ripped
  6   | (1/1) Accurately ripped
  7   | (1/1) Accurately ripped
  8   | (1/1) Accurately ripped
  9   | (1/1) Accurately ripped
 10   | (1/1) Accurately ripped
 11   | (1/1) Accurately ripped
 12   | (1/1) Accurately ripped
 13   | (1/1) Accurately ripped
 14   | (1/1) Accurately ripped
 15   | (1/1) Accurately ripped
 16   | (1/1) Accurately ripped
 17   | (1/1) Accurately ripped
 18   | (1/1) Accurately ripped
 19   | (1/1) Accurately ripped
 20   | (1/1) Accurately ripped
 21   | (1/1) Accurately ripped
 22   | (1/1) Accurately ripped
==== Log checksum 2E3D315D1F2C352E9E1AF4354FBCE584AA019BE64E47A6F60AF3D9537D2BE106 ====
Код: Выделить всё
REM GENRE Country
REM DATE 2016
REM DISCID 4C103416
REM COMMENT "ExactAudioCopy v1.3"
PERFORMER "Jerry Lee Lewis"
TITLE "Country Class / Country Memories"
REM COMPOSER ""
FILE "01 - Let's Put It Back Together Again.wav" WAVE
  TRACK 01 AUDIO
    TITLE "Let's Put It Back Together Again"
    PERFORMER "Jerry Lee Lewis"
    REM COMPOSER ""
    INDEX 01 00:00:00
  TRACK 02 AUDIO
    TITLE "No One Will Ever Know"
    PERFORMER "Jerry Lee Lewis"
    REM COMPOSER ""
    INDEX 00 03:15:57
FILE "02 - No One Will Ever Know.wav" WAVE
    INDEX 01 00:00:00
  TRACK 03 AUDIO
    TITLE "You Belong To Me"
    PERFORMER "Jerry Lee Lewis"
    REM COMPOSER ""
    INDEX 00 03:01:11
FILE "03 - You Belong To Me.wav" WAVE
    INDEX 01 00:00:00
  TRACK 04 AUDIO
    TITLE "I Sure Miss Those Good Old TImes"
    PERFORMER "Jerry Lee Lewis"
    REM COMPOSER ""
    INDEX 00 02:50:54
FILE "04 - I Sure Miss Those Good Old TImes.wav" WAVE
    INDEX 01 00:00:00
  TRACK 05 AUDIO
    TITLE "The Old Country Chruch"
    PERFORMER "Jerry Lee Lewis"
    REM COMPOSER ""
    INDEX 00 03:38:71
FILE "05 - The Old Country Chruch.wav" WAVE
    INDEX 01 00:00:00
  TRACK 06 AUDIO
    TITLE "After The Fool You've Made Of Me"
    PERFORMER "Jerry Lee Lewis"
    REM COMPOSER ""
    INDEX 00 02:46:70
FILE "06 - After The Fool You've Made Of Me.wav" WAVE
    INDEX 01 00:00:00
  TRACK 07 AUDIO
    TITLE "Jerry Lee's Rock & Roll Revival Show"
    PERFORMER "Jerry Lee Lewis"
    REM COMPOSER ""
    INDEX 00 02:10:00
FILE "07 - Jerry Lee's Rock & Roll Revival Show.wav" WAVE
    INDEX 01 00:00:00
  TRACK 08 AUDIO
    TITLE "Wedding Bells"
    PERFORMER "Jerry Lee Lewis"
    REM COMPOSER ""
    INDEX 00 02:47:19
FILE "08 - Wedding Bells.wav" WAVE
    INDEX 01 00:00:00
  TRACK 09 AUDIO
    TITLE "Only Love Can Get You In My Door"
    PERFORMER "Jerry Lee Lewis"
    REM COMPOSER ""
    INDEX 00 02:36:13
FILE "09 - Only Love Can Get You In My Door.wav" WAVE
    INDEX 01 00:00:00
  TRACK 10 AUDIO
    TITLE "The One Rose That's Left In My Heart"
    PERFORMER "Jerry Lee Lewis"
    REM COMPOSER ""
    INDEX 00 04:22:05
FILE "10 - The One Rose That's Left In My Heart.wav" WAVE
    INDEX 01 00:00:00
  TRACK 11 AUDIO
    TITLE "The Closest Thing To You"
    PERFORMER "Jerry Lee Lewis"
    REM COMPOSER ""
    INDEX 00 04:36:67
FILE "11 - The Closest Thing To You.wav" WAVE
    INDEX 01 00:00:00
  TRACK 12 AUDIO
    TITLE "Middle Age Cracy"
    PERFORMER "Jerry Lee Lewis"
    REM COMPOSER ""
    INDEX 00 03:13:04
FILE "12 - Middle Age Cracy.wav" WAVE
    INDEX 01 00:00:00
  TRACK 13 AUDIO
    TITLE "Let's Say Goodbye Like We Said Hello (In A Friendly Kind Of Way)"
    PERFORMER "Jerry Lee Lewis"
    REM COMPOSER ""
    INDEX 00 03:52:61
FILE "13 - Let's Say Goodbye Like We Said Hello (In A Friendly Kind Of Way).wav" WAVE
    INDEX 01 00:00:00
  TRACK 14 AUDIO
    TITLE "Who's Sorry Now"
    PERFORMER "Jerry Lee Lewis"
    REM COMPOSER ""
    INDEX 00 03:00:48
FILE "14 - Who's Sorry Now.wav" WAVE
    INDEX 01 00:00:00
  TRACK 15 AUDIO
    TITLE "Jealous Heart"
    PERFORMER "Jerry Lee Lewis"
    REM COMPOSER ""
    INDEX 00 03:40:52
FILE "15 - Jealous Heart.wav" WAVE
    INDEX 01 00:00:00
  TRACK 16 AUDIO
    TITLE "Georgia On My Mind"
    PERFORMER "Jerry Lee Lewis"
    REM COMPOSER ""
    INDEX 00 02:14:64
FILE "16 - Georgia On My Mind.wav" WAVE
    INDEX 01 00:00:00
  TRACK 17 AUDIO
    TITLE "Come On In"
    PERFORMER "Jerry Lee Lewis"
    REM COMPOSER ""
    INDEX 00 03:28:47
FILE "17 - Come On In.wav" WAVE
    INDEX 01 00:00:00
  TRACK 18 AUDIO
    TITLE "As Long As We Live"
    PERFORMER "Jerry Lee Lewis"
    REM COMPOSER ""
    INDEX 00 02:31:17
FILE "18 - As Long As We Live.wav" WAVE
    INDEX 01 00:00:00
  TRACK 19 AUDIO
    TITLE "(You'd Think By Now) I'd Be Over You"
    PERFORMER "Jerry Lee Lewis"
    REM COMPOSER ""
    INDEX 00 02:11:45
FILE "19 - (You'd Think By Now) I'd Be Over You.wav" WAVE
    INDEX 01 00:00:00
  TRACK 20 AUDIO
    TITLE "Country Memories"
    PERFORMER "Jerry Lee Lewis"
    REM COMPOSER ""
    INDEX 00 02:39:14
FILE "20 - Country Memories.wav" WAVE
    INDEX 01 00:00:00
  TRACK 21 AUDIO
    TITLE "What's So Good About Goodbye"
    PERFORMER "Jerry Lee Lewis"
    REM COMPOSER ""
    INDEX 00 03:00:08
FILE "21 - What's So Good About Goodbye.wav" WAVE
    INDEX 01 00:00:00
  TRACK 22 AUDIO
    TITLE "Tennessee Saturday Night"
    PERFORMER "Jerry Lee Lewis"
    REM COMPOSER ""
    INDEX 00 03:11:06
FILE "22 - Tennessee Saturday Night.wav" WAVE
    INDEX 01 00:00:00
Не забывайте говорить Спасибо. Не уходите с раздачи!   
Торрент: Зарегистрирован [19 июн 2018, 21:34]
Статус:
Проверен
 
.torrent скачан: 0 раз
Хэш: 94baa88857aa10f87c83874df043e99af89123df
Размер: 403.01 МБ (422 585 339 байт)
   Стать Автором раздачи
   
Ничто так не успокаивает, как инструктаж по технике безопасности.
Цитата

Вернуться в Rock

Кто сейчас на конференции

Сейчас эту тему просматривают: нет зарегистрированных пользователей и гости: 1