Хороший доктор / The Good Doctor / Сезон: 1 / Серии: 1-12 из 18 (Майкл Патрик Джэнн, Нестор Карбонелл, Джон Дал) [2017, США, драма, WEB-DL 1080p] MVO (LostFilm) + Original + Subs (Eng)

 Статистика раздачи 
Размер: 29.02 ГБ   |  Зарегистрирован: 20 янв 2018, 18:42   |   .torrent скачан: 0 раз
Сидеров: 3  [ 0 байт/сек ]     Личеров: 0  [ 0 байт/сек ]  
  
Аватара пользователя
 
Раздал: 90.26 ГБ
Скачал: 15.93 ГБ
Ратио: 6.635
Сообщения: 6550
Стаж: 8 лет 3 месяца 23 дня

Хороший доктор / The Good Doctor

• Год выпуска: 2017
• Страна: США
• Жанр: драма
• Продолжительность: ~00:45:00
• Перевод: Профессиональный (многоголосый закадровый) | LostFilm
• Режиссёр: Майкл Патрик Джэнн, Нестор Карбонелл, Джон Дал
• В ролях: Фредди Хаймор, Николас Гонсалес, Антония Томас, Чуку Моду,Бо Гарретт, Хилл Харпер, Ричард Шифф, Грэм Верчир, Ирен Кэн, Ребекка Хусейн
• Описание: История молодого талантливого врача с синдромом саванта, обладающего уникальными способностями — невероятной памятью и фантастической чувствительностью к проблемам, вспыхивающим внутри человеческого организма. Герой становится блестящим хирургом, несмотря на то, в личностном плане его развитие соответствует развитию десятилетнего ребёнка…
Ссылка на предыдущие и альтернативные раздачи

by lova_lova
• Качество: WEB-DL 1080p
• Контейнер: MKV
• Видео: 1920x1080, ~9487 kbps, 23.976 fps, MPEG-4 AVC
• Аудио Rus: 48 kHz, AC3, 3/2 (L,C,R,l,r) + LFE ch, ~640.00 kbps | LostFilm
• Аудио Eng: 48 kHz, E-AC3, 3/2 (L,C,R,l,r) + LFE ch, ~640.00 kbps
• Субтитры: Английские
• Реклама: Отсутствует

Работа со звуком: serial_M

01. Запах гари / Burnt Food
02. Гора Рашмор / Mount Rushmore
03. Оливер / Oliver
04. Трубы / Pipes
05. Три десятых процента / Point Three Percent
06. Не подделка / Not Fake
07. 22 шага / 22 Steps
08. Яблоко / Apple
09. Нюансы / Intangibles
10. Жертва / Sacrifice
11. Острова. Часть первая / Islands: Part One
12. Острова. Часть вторая / Islands: Part Two
13.
14.
15.

Код: Выделить всё
Общее
Уникальный идентификатор                 : 225150485654357294008697270605813885630 (0xA96267FEC9B6EFBE9EA4BF784FBBAABE)
Полное имя                               : E:\The.Good.Doctor.S01.WEB-DL.1080p.Rus.Eng\The.Good.Doctor.S01E01.WEB-DL.1080p.Rus.Eng.mkv
Формат                                   : Matroska
Версия формата                           : Version 4 / Version 2
Размер файла                             : 3,26 Гбайт
Продолжительность                        : 43 м. 24 с.
Режим общего битрейта                    : Переменный
Общий поток                              : 10,8 Мбит/сек
Название фильма                          : The Good Doctor 1x01 (2017) - Release serial_M
Дата кодирования                         : UTC 2017-12-22 15:40:49
Программа кодирования                    : mkvmerge v18.0.0 ('Apricity') 64-bit
Библиотека кодирования                   : libebml v1.3.5 + libmatroska v1.4.8
Видео
Идентификатор                            : 1
Формат                                   : AVC
Формат/Информация                        : Advanced Video Codec
Профиль формата                          : High@L4
Настройки формата                        : CABAC / 4 Ref Frames
Параметр CABAC формата                   : Да
Параметр RefFrames формата               : 4 кадра
Идентификатор кодека                     : V_MPEG4/ISO/AVC
Продолжительность                        : 43 м. 24 с.
Вид битрейта                             : Переменный
Битрейт                                  : 9487 Кбит/сек
Максимальный битрейт                     : 15,0 Мбит/сек
Ширина                                   : 1920 пикселей
Высота                                   : 1080 пикселей
Соотношение сторон                       : 16:9
Режим частоты кадров                     : Постоянный
Частота кадров                           : 23,976 (24000/1001) кадра/сек
Цветовое пространство                    : YUV
Субдискретизация насыщенности            : 4:2:0
Битовая глубина                          : 8 бит
Тип развёртки                            : Прогрессивная
Бит/(Пиксели*Кадры)                      : 0.191
Размер потока                            : 2,88 Гбайт (88%)
Заголовок                                : The Good Doctor 1x01 (2017) - Release serial_M
Язык                                     : English
Default                                  : Да
Forced                                   : Нет
Цветовой диапазон                        : Limited
Основные цвета                           : BT.709
Характеристики трансфера                 : BT.709
Коэффициенты матрицы                     : BT.709
Аудио #1
Идентификатор                            : 2
Формат                                   : AC-3
Формат/Информация                        : Audio Coding 3
Идентификатор кодека                     : A_AC3
Продолжительность                        : 43 м. 24 с.
Вид битрейта                             : Постоянный
Битрейт                                  : 640 Кбит/сек
Каналы                                   : 6 каналов
Расположение каналов                     : Front: L C R, Side: L R, LFE
Частота                                  : 48,0 КГц
Частота кадров                           : 31,250 кадров/сек (1536 SPF)
Битовая глубина                          : 16 бит
Метод сжатия                             : С потерями
Размер потока                            : 199 Мбайт (6%)
Заголовок                                : LostFilm
Язык                                     : Russian
ServiceKind/String                       : Complete Main
Default                                  : Да
Forced                                   : Нет
Аудио #2
Идентификатор                            : 3
Формат                                   : E-AC-3
Формат/Информация                        : Enhanced Audio Coding 3
Идентификатор кодека                     : A_EAC3
Продолжительность                        : 43 м. 24 с.
Вид битрейта                             : Постоянный
Битрейт                                  : 640 Кбит/сек
Каналы                                   : 6 каналов
Расположение каналов                     : Front: L C R, Side: L R, LFE
Частота                                  : 48,0 КГц
Частота кадров                           : 187,500 кадров/сек (256 SPF)
Метод сжатия                             : С потерями
Размер потока                            : 199 Мбайт (6%)
Заголовок                                : English
Язык                                     : English
ServiceKind/String                       : Complete Main
Default                                  : Нет
Forced                                   : Нет
Текст
Идентификатор                            : 4
Формат                                   : UTF-8
Идентификатор кодека                     : S_TEXT/UTF8
Идентификатор кодека/Информация          : UTF-8 Plain Text
Продолжительность                        : 43 м. 12 с.
Битрейт                                  : 66 бит/сек
ElementCount                             : 775
Размер потока                            : 21,0 Кбайт (0%)
Заголовок                                : eng-sub
Язык                                     : English
Default                                  : Нет
Forced                                   : Нет

Внимание! Раздача ведётся путём добавления новых серий; при каждом добавлении создаётся новый торрент. Чтобы начать докачку новой серии, пользователям необходимо сделать следующее:
(1) остановить скачивание,
(2) удалить старый торрент у себя из клиента (старые серии удалять не надо),
(3) скачать новый торрент и запустить его у себя в клиенте вместо старого, при этом указать клиенту путь в старую папку куда и должно происходить скачивание новых серий.
Ваш клиент при этом должен произвести хеширование (проверку) старой папки (если не производит сам - помогите ему сделать это), и будет докачивать только те серии которых у вас ещё нет. Старые серии при этом не удаляются, а продолжают раздаваться!
Eсли вы уже удалили старые серии, то предотвратить повторную закачку старых серий можно, отжав галочку в соответствующих местах при запуске нового торрента. По возможности, желательно не удалять старые серии как можно дольше чтобы релизёр не столько продолжал раздавать старые серии, а смог сконцентрироваться на новых.
Не забывайте говорить Спасибо. Не уходите с раздачи!   
Торрент: Зарегистрирован [20 янв 2018, 18:42] Для скачивания .torrent
необходима регистрация
Или скачать с помощью
MediaGet
Статус:
Проверен
 
.torrent скачан: 0 раз
Хэш: 4767ffea2be32d04bb3e31a5e49b8d660a4a825a
Размер: 29.02 ГБ (31 157 267 822 байт)
   Стать Автором раздачи
   
Цитата

Вернуться в Хороший доктор / The Good Doctor

Кто сейчас на конференции

Сейчас эту тему просматривают: нет зарегистрированных пользователей и гости: 1