Пространство / Экспансия / The Expanse (2015) WEB-DL [H.264/720p-LQ] (сезон 1, серии 1-10 из 10) OMSKBIRD records

 Статистика раздачи 
Размер: 14.46 ГБ   |  Зарегистрирован: 20 янв 2018, 16:31   |   .torrent скачан: 0 раз
Сидеров: 0  [ 0 байт/сек ]     Личеров: 0  [ 0 байт/сек ]  
  
Аватара пользователя
 
Раздал: 2.05 ГБ
Скачал: 15.48 ГБ
Ратио: 0.133
Сообщения: 30323
Стаж: 8 лет 1 месяц 6 дней

Пространство / Экспансия / The Expanse (2015) WEB-DL (сезон 1, серии 1-10 из 10) OMSKBIRD records

Производство: США
Жанр: фантастика, детектив

Режиссер: Роберт Либерман
Актеры: Шоре Агдашлу, Кэс Анвар, Уэс Чэтэм, Томас Джейн, Стивен Стрейт, Илайс Туфексис, Джейн Моффат, Сара Митич, Майкл Мюррей, Джо Делфин и др.

Описание:
Через двести лет от дня сегодняшнего некий сыщик, привыкший всё доводить до конца при любых обстоятельствах, в рамках расследования дела об исчезновении молодой женщины оказывается на борту звездолета, капитан которого решает помочь детективу в его непростом деле. Величайший заговор в истории человечества гарантируется, как и его непременное раскрытие.


Дата мировой премьеры: 14 декабря 2015

Продолжительность: ~00:45:00 серия
Качество видео: WEB-DL
Перевод: Многоголосый закадровый, профессиональный - OMSKBIRD records
Вид субтитров: вшитые отключаемые
Язык субтитров: русский (OmskBird),английский

Видео: AVC/H.264, 1280x720 (16:9), ~3910 kbps
Аудио #1 Rus: AC3, 6 ch, 384 kbps - многоголосый закадровый
Аудио #2 Eng: AC3, 6 ch, 384 kbps - оригинал
Код:
Код: Выделить всё
Общее
Уникальный идентификатор                 : 180010655832776725294936730865656525217 (0x876CCA8E8E047EE88F9EF9B3E191F1A1)
Полное имя                               : G:\Films\The.Expanse.S01.720p.WEB-DL.OmskBird\The.Expanse.S01E01.720p.WEB-DL.OmskBird.DD5.1.mkv
Формат                                   : Matroska
Версия формата                           : Version 4 / Version 2
Размер файла                             : 1,49 Гбайт
Продолжительность                        : 44 м.
Общий поток                              : 4773 Кбит/сек
Дата кодирования                         : UTC 2016-01-08 12:57:48
Программа кодирования                    : mkvmerge v8.6.1 ('Flying') 64bit
Библиотека кодирования                   : libebml v1.3.3 + libmatroska v1.4.4

Видео
Идентификатор                            : 1
Формат                                   : AVC
Формат/Информация                        : Advanced Video Codec
Профиль формата                          : [url=http://nnm-club.name/mailto:High@L3.1]High@L3.1[/url]
Параметр CABAC формата                   : Нет
Параметр ReFrames формата                : 2 кадра
Идентификатор кодека                     : V_MPEG4/ISO/AVC
Продолжительность                        : 44 м.
Битрейт                                  : 4002 Кбит/сек
Ширина                                   : 1280 пикселей
Высота                                   : 720 пикселей
Соотношение сторон                       : 16:9
Режим частоты кадров                     : Постоянный
Частота кадров                           : 23,976 (24000/1001) кадра/сек
Цветовое пространство                    : YUV
Субдискретизация насыщенности            : 4:2:0
Битовая глубина                          : 8 бит
Тип развёртки                            : Прогрессивная
Бит/(Пиксели*Кадры)                      : 0.181
Размер потока                            : 1,25 Гбайт (84%)
Язык                                     : English
Default                                  : Да
Forced                                   : Нет
colour_range                             : Limited
Основные цвета                           : BT.709
Характеристики трансфера                 : BT.709
Коэффициенты матрицы                     : BT.709

Аудио #1
Идентификатор                            : 2
Формат                                   : AC-3
Формат/Информация                        : Audio Coding 3
Расширение режима                        : CM (complete main)
Параметр Endianness формата              : Big
Идентификатор кодека                     : A_AC3
Продолжительность                        : 44 м.
Вид битрейта                             : Постоянный
Битрейт                                  : 384 Кбит/сек
Каналы                                   : 6 каналов
Расположение каналов                     : Front: L C R, Side: L R, LFE
Частота                                  : 48,0 КГц
Частота кадров                           : 31,250 кадров/сек (1536 spf)
Метод сжатия                             : С потерями
Размер потока                            : 123 Мбайт (8%)
Заголовок                                : OmskBird 5.1
Язык                                     : Russian
Default                                  : Да
Forced                                   : Нет

Аудио #2
Идентификатор                            : 3
Формат                                   : AC-3
Формат/Информация                        : Audio Coding 3
Расширение режима                        : CM (complete main)
Параметр Endianness формата              : Big
Идентификатор кодека                     : A_AC3
Продолжительность                        : 44 м.
Вид битрейта                             : Постоянный
Битрейт                                  : 384 Кбит/сек
Каналы                                   : 6 каналов
Расположение каналов                     : Front: L C R, Side: L R, LFE
Частота                                  : 48,0 КГц
Частота кадров                           : 31,250 кадров/сек (1536 spf)
Метод сжатия                             : С потерями
Размер потока                            : 123 Мбайт (8%)
Заголовок                                : original 5.1
Язык                                     : English
Default                                  : Нет
Forced                                   : Нет

Текст #1
Идентификатор                            : 4
Формат                                   : UTF-8
Идентификатор кодека                     : S_TEXT/UTF8
Идентификатор кодека/Информация          : UTF-8 Plain Text
Продолжительность                        : 43 м.
Битрейт                                  : 104 бит/сек
Count of elements                        : 586
Размер потока                            : 32,9 Кбайт (0%)
Заголовок                                : rus (OmskBird)
Язык                                     : Russian
Default                                  : Нет
Forced                                   : Нет

Текст #2
Идентификатор                            : 5
Формат                                   : UTF-8
Идентификатор кодека                     : S_TEXT/UTF8
Идентификатор кодека/Информация          : UTF-8 Plain Text
Продолжительность                        : 44 м.
Битрейт                                  : 69 бит/сек
Count of elements                        : 677
Размер потока                            : 22,5 Кбайт (0%)
Заголовок                                : CC
Язык                                     : English
Default                                  : Нет
Forced                                   : Нет

01. Дульсинея
02. The Big Empty
03. Remember the Cant
04. CQB
05. Back to the Butcher
06. Rock Bottom
07. Windmills
08. Salvage
09. Critical Mass
10. Leviathan Wakes
Релиз подготовил:Skyns61
Роли озвучивали: Павел Ярощик, Ольга Федорова, Алексей Гнеушев и Эльвира Адамова
Звукорежиссер: Павел Ярощик
Сборка, работа со звуком: Skyns61

Скриншоты:



Все релизы сериала «Пространство / Экспансия / The Expanse» на NNM-Club

Время раздачи: 24/7 (круглосуточно)
Не забывайте говорить Спасибо. Не уходите с раздачи!   
Торрент: Зарегистрирован [20 янв 2018, 16:31] Для скачивания .torrent
необходима регистрация
Или скачать с помощью
MediaGet
Статус:
Проверен
 
.torrent скачан: 0 раз
Хэш: eb238185d1c5cede129288430644e0da62c10f90
Размер: 14.46 ГБ (15 529 132 217 байт)
   Стать Автором раздачи
   
Цитата

Вернуться в Пространство / The Expanse

Кто сейчас на конференции

Сейчас эту тему просматривают: нет зарегистрированных пользователей и гости: 1