Американцы / The Americans (2015) WEB-DL [H.264/720p-LQ] (сезон 3, серии 1-13 из 13) NewStudio

 Статистика раздачи 
Размер: 20.09 ГБ   |  Зарегистрирован: 20 янв 2018, 16:27   |   .torrent скачан: 1 раз
Сидеров: 2  [ 0 байт/сек ]     Личеров: 0  [ 0 байт/сек ]  
  
Аватара пользователя
 
Раздал: 2.05 ГБ
Скачал: 15.48 ГБ
Ратио: 0.133
Сообщения: 30323
Стаж: 8 лет 3 месяца 25 дней

Американцы / The Americans (2015) WEB-DL [H.264/720p-LQ] (сезон 3, серии 1-13 из 13)

«All's fair in love and cold war»
Производство: США
Жанр: триллер, драма, криминал, детектив

Режиссер: Дэниэл Сакхейм, Адам Аркин, Джон Дал
Актеры: Кери Рассел, Мэттью Риз, Ноа Эммерик, Холли Тейлор, Кейдрич Селлати, Аннет Махендру, Ричард Томас, Сьюзэн Миснер, Элисон Райт, Лев Горн и др.

Описание:
История о сложном браке двух агентов КГБ, которые под видом американцев заселяются в пригород Вашингтона сразу после того, как президентом избирают Рейгана. Подставной брак Филлипа и Элизабет с каждым днем становится все более настоящим и эмоциональным, несмотря на эскалацию холодной войны и опасные отношения, которые они должны поддерживать с сетью шпионов и информаторов. Напряжение нарастает, когда появляется новый сосед Стэн, агент ФБР, который работает в контрразведке.



Продолжительность: ~00:48:00 серия
Качество видео: WEB-DL 720p
Перевод: Многоголосый закадровый, профессиональный - NewStudio
Автор перевода: weirdie

Видеокодек: MPEG-4/H.264 AVC
Формат: MKV
Битрейт видео: ~4000 kb/s
Размер кадра: 1280x720 (16:9)
Аудио Rus: (AC-3, 48,0 kHz, 6 ch, 384 kb/s) - многоголосый закадровый
Аудио Eng: (AC-3, 48,0 kHz, 6 ch, 384 kb/s) - оригинал
Общее
Уникальный идентификатор : 184450632509343799132301665867792705833 (0x8AC3E64EE0E86766A30E8D944E94E929)
Полное имя : D:\Американцы (сезон 3) The Americans (2015) WEB-DL 720p - NewStudio\The.Americans.s03e01.WEBDL.720p.NewStudio.TV.mkv
Формат : Matroska
Версия формата : Version 2
Размер файла : 1,62 Гбайт
Продолжительность : 48 м.
Общий поток : 4736 Кбит/сек
Дата кодирования : UTC 2015-01-29 17:37:11
Программа кодирования : mkvmerge v2.9.9 ('Tutu') built on Nov 25 2009 21:13:32
Библиотека кодирования : libebml v0.7.9 + libmatroska v0.8.1

Видео
Идентификатор : 1
Формат : AVC
Формат/Информация : Advanced Video Codec
Профиль формата : High@L3.1
Параметр CABAC формата : Нет
Параметр ReFrames формата : 2 кадра
Идентификатор кодека : V_MPEG4/ISO/AVC
Продолжительность : 48 м.
Битрейт : 3874 Кбит/сек
Ширина : 1280 пикселей
Высота : 720 пикселей
Соотношение сторон : 16:9
Режим частоты кадров : Постоянный
Частота кадров : 23,976 кадра/сек
Цветовое пространство : YUV
Субдискретизация насыщенности : 4:2:0
Битовая глубина : 8 бит
Тип развёртки : Прогрессивная
Бит/(Пиксели*Кадры) : 0.175
Размер потока : 1,33 Гбайт (82%)
Язык : English
Default : Нет
Forced : Нет
Основные цвета : BT.709
Характеристики трансфера : BT.709
Коэффициенты матрицы : BT.709
colour_range : Limited

Аудио #1
Идентификатор : 2
Формат : AC-3
Формат/Информация : Audio Coding 3
Расширение режима : CM (complete main)
Параметр Endianness формата : Big
Идентификатор кодека : A_AC3
Продолжительность : 48 м.
Вид битрейта : Постоянный
Битрейт : 384 Кбит/сек
Каналы : 6 каналов
Расположение каналов : Front: L C R, Side: L R, LFE
Частота : 48,0 КГц
Битовая глубина : 16 бит
Метод сжатия : С потерями
Размер потока : 135 Мбайт (8%)
Язык : Russian
Default : Да
Forced : Да

Аудио #2
Идентификатор : 3
Формат : AC-3
Формат/Информация : Audio Coding 3
Расширение режима : CM (complete main)
Параметр Endianness формата : Big
Идентификатор кодека : A_AC3
Продолжительность : 48 м.
Вид битрейта : Постоянный
Битрейт : 384 Кбит/сек
Каналы : 6 каналов
Расположение каналов : Front: L C R, Side: L R, LFE
Частота : 48,0 КГц
Битовая глубина : 16 бит
Метод сжатия : С потерями
Размер потока : 135 Мбайт (8%)
Язык : English
Default : Нет
Forced : Нет
01. EST Men / Семинар Эрхарда
02. Baggage / Багаж
03. Open House / Дом на продажу
04. Dimebag / Травы на десятку
05. Salang Pass / Перевал Саланг
06. Born Again / Заново рождённая
07. Walter Taffet / Уолтер Таффет
08. Divestment / Разоблачение
09. Do Mail Robots Dream of Electric Sheep? / Мечтают ли почтовые роботы об электроовцах?
10. Stingers / Осы
11. One Day in the Life of Anton Baklanov / Один день из жизни Антона Бакланова
12. I Am Abassin Zadran / Я Абассин Задран
13. March 8, 1983 / 8 Марта 1983

Скриншоты:




Время раздачи: 24/7 - круглосуточно (по возможности)
Не забывайте говорить Спасибо. Не уходите с раздачи!   
Торрент: Зарегистрирован [20 янв 2018, 16:27]
Статус:
Проверен
 
.torrent скачан: 1 раз
Хэш: b825a8596117d8c3a7322995771787acf50cd48f
Размер: 20.09 ГБ (21 569 570 511 байт)
   Стать Автором раздачи
   
Цитата

Вернуться в Американцы / The Americans

Кто сейчас на конференции

Сейчас эту тему просматривают: нет зарегистрированных пользователей и гости: 1