Библиотекари / The Librarians (2015) WEB-DLRip [H.264/1080p-LQ] (сезон 2, серии 1-10 из 10) LostFilm [AD]

 Статистика раздачи 
Размер: 17.82 ГБ   |  Зарегистрирован: 20 янв 2018, 15:33   |   .torrent скачан: 1 раз
Сидеров: 3  [ 0 байт/сек ]     Личеров: 1  [ 0 байт/сек ]  
  
Аватара пользователя
 
Раздал: 2.05 ГБ
Скачал: 15.48 ГБ
Ратио: 0.133
Сообщения: 30323
Стаж: 8 лет 1 месяц 1 день

Библиотекари / The Librarians (2015) WEB-DLRip [H.264/1080p-LQ] (сезон 2, серии 1-10 из 10) LostFilm

Производство: США
Жанр: приключения

Режиссер: Марк Роскин, Джонатан Фрейкс, Дин Девлин
Актеры: Кристиан Кэйн, Линди Бут, Джон Ким, Ребекка Ромейн, Джон Ларрокетт, Мэтт Фрюэр, Лесли-Энн Брандт, Дэвид С. Ли, Ноа Уайли и др.

Описание:
«Библиотекари» — это приключенческий фэнтезийный сериал, спин-офф полнометражной трилогии «Библиотекарь». Создатели проекта вдохновлялись классическими авантюрными сюжетами, которые часто становятся основой зрелищных голливудских блокбастеров, таких как «Индиана Джонс» и «Сокровище нации». В сериале органично существуют мифы и легенды различных народов, а его непринужденная атмосфера, динамичный сюжет, самоирония и жанровое разнообразие могут привлечь зрителей любых вкусов и возрастов.



Возраст: 16+ (зрителям, достигшим 16 лет)

Продолжительность: ~ 00:42:00 серия
Качество видео: WEB-DLRip
Перевод: Многоголосый закадровый, профессиональный - LostFilm
Реклама: присутствуют заставка и логотип LostFilm

Видео: AVC/H.264, 1920x1080 (16:9), ~5242 Kbps
Аудио 1: AC3, 2 ch, 384 Kbps - русский, многоголосый закадровый
Аудио 2: AC3, 2 ch, 384 Kbps - английский
Код: Выделить всё
General
Unique ID                      : 229878453040174767532243895501842336141 (0xACF0FAC8E5B22BD29775A6FF78D0C98D)
Complete name                  : \\MYBOOKLIVE\Public\Downloads\Раздача\The.Librarians.S02.1080p.LostFilm\The.Librarians.S02E01.1080p.rus.LostFilm.TV.mkv
Format                         : Matroska
Format version                 : Version 4 / Version 2
File size                      : 1.78 GiB
Duration                       : 42mn 24s
Overall bit rate               : 6 012 Kbps
Encoded date                   : UTC 2015-11-03 20:53:41
Writing application            : mkvmerge v7.7.0 ('Six Voices') 64bit built on Feb 28 2015 23:39:33
Writing library                : libebml v1.3.1 + libmatroska v1.4.2
DURATION                       : 00:42:24.192000000
NUMBER_OF_FRAMES               : 79506
NUMBER_OF_BYTES                : 122121216
_STATISTICS_WRITING_APP        : mkvmerge v7.7.0 ('Six Voices') 64bit built on Feb 28 2015 23:39:33
_STATISTICS_WRITING_DATE_UTC   : 2015-11-03 20:53:41
_STATISTICS_TAGS               : BPS DURATION NUMBER_OF_FRAMES NUMBER_OF_BYTES

Video
ID                             : 1
Format                         : AVC
Format/Info                    : Advanced Video Codec
Format profile                 : High@L4
Format settings, CABAC         : Yes
Format settings, ReFrames      : 2 frames
Codec ID                       : V_MPEG4/ISO/AVC
Duration                       : 42mn 24s
Bit rate                       : 5 242 Kbps
Width                          : 1 920 pixels
Height                         : 1 080 pixels
Display aspect ratio           : 16:9
Frame rate mode                : Constant
Frame rate                     : 23.976 fps
Color space                    : YUV
Chroma subsampling             : 4:2:0
Bit depth                      : 8 bits
Scan type                      : Progressive
Bits/(Pixel*Frame)             : 0.105
Stream size                    : 1.52 GiB (85%)
Writing library                : x264 core 112 r1834 a51816a
Encoding settings              : cabac=1 / ref=1 / deblock=1:0:0 / analyse=0x3:0x133 / me=umh / subme=7 / psy=1 / psy_rd=1.00:0.00 / mixed_ref=0 / me_range=16 / chroma_me=1 / trellis=1 / 8x8dct=1 / cqm=0 / deadzone=21,11 / fast_pskip=1 / chroma_qp_offset=-2 / threads=12 / sliced_threads=0 / nr=0 / decimate=1 / interlaced=0 / constrained_intra=0 / bframes=5 / b_pyramid=0 / b_adapt=1 / b_bias=0 / direct=3 / weightb=1 / open_gop=0 / weightp=2 / keyint=250 / keyint_min=25 / scenecut=40 / intra_refresh=0 / rc_lookahead=40 / rc=2pass / mbtree=1 / bitrate=5242 / ratetol=1.0 / qcomp=0.60 / qpmin=0 / qpmax=51 / qpstep=4 / cplxblur=20.0 / qblur=0.5 / ip_ratio=1.40 / aq=1:1.00
Default                        : Yes
Forced                         : No

Audio #1
ID                             : 2
Format                         : AC-3
Format/Info                    : Audio Coding 3
Mode extension                 : CM (complete main)
Format settings, Endianness    : Big
Codec ID                       : A_AC3
Duration                       : 42mn 24s
Bit rate mode                  : Constant
Bit rate                       : 384 Kbps
Channel(s)                     : 2 channels
Channel positions              : Front: L R
Sampling rate                  : 48.0 KHz
Compression mode               : Lossy
Stream size                    : 116 MiB (6%)
Default                        : Yes
Forced                         : No

Audio #2
ID                             : 3
Format                         : AC-3
Format/Info                    : Audio Coding 3
Mode extension                 : CM (complete main)
Format settings, Endianness    : Big
Codec ID                       : A_AC3
Duration                       : 42mn 24s
Bit rate mode                  : Constant
Bit rate                       : 384 Kbps
Channel(s)                     : 2 channels
Channel positions              : Front: L R
Sampling rate                  : 48.0 KHz
Compression mode               : Lossy
Stream size                    : 116 MiB (6%)
Default                        : No
Forced                         : No

Скриншоты:




Время раздачи: 24/7 (до появления первых 3-5 скачавших)
Не забывайте говорить Спасибо. Не уходите с раздачи!   
Торрент: Зарегистрирован [20 янв 2018, 15:33] Для скачивания .torrent
необходима регистрация
Или скачать с помощью
MediaGet
Статус:
Проверен
 
.torrent скачан: 1 раз
Хэш: d7ba6b40d2d1b52fbc165afb8501754c7a3f7a07
Размер: 17.82 ГБ (19 134 125 249 байт)
   Стать Автором раздачи
   
Цитата

Вернуться в Библиотекари / The Librarians

Кто сейчас на конференции

Сейчас эту тему просматривают: нет зарегистрированных пользователей и гости: 1