В пустыне смерти / Into the Badlands (2015) WEB-DL [H.264/720p-LQ] (сезон 1, серии 1-6 из 6) (NewStudio)

 Статистика раздачи 
Размер: 8.48 ГБ   |  Зарегистрирован: 20 янв 2018, 15:31   |   .torrent скачан: 1 раз
Сидеров: 116  [ 0 байт/сек ]     Личеров: 1  [ 0 байт/сек ]  
  
Аватара пользователя
 
Раздал: 2.05 ГБ
Скачал: 15.48 ГБ
Ратио: 0.133
Сообщения: 30323
Стаж: 8 лет 6 месяцев

В пустыне смерти / Into the Badlands (2015) WEB-DL [H.264/720p-LQ] (сезон 1, серии 1-6 из 6) (NewStudio)

Производство: США
Жанр: боевик, драма, приключения

Режиссер: Дэвид Добкин
Актеры: Эмили Бичем, Сара Болгер, Орла Брэйди, Мартон Чокаш, Элли Иоаннидес, Арамис Найт, Мадлен Манток, Майкл Сил, Оливер Старк, Дэниэл Ву и др.

Описание:
Приключенческий боевик о двух друзьях. В пустыне смерти, какие испытания предстоит пройти главным героям на пути просвещения. Ради обретения высшей мудрости мастер боевых искусств Санни и его юный напарник решают пройти через неизведанные земли. Они знают, что там их будут встречать враждебно, но ради высшей цели главные герои готовы вынести всё. В основу сюжета сериала был положен китайский роман под названием «Путешествие на Запад». Во время путешествия Санни покажет в полной мере своё мастерство, а его юный друг сможет многому научиться, и владению собственным телом, и контролю над собственным духом.


Дата мировой премьеры: 15 ноября 2015
Дата премьеры в России: 16 ноября 2015

Релиз от: NewStudio
Продолжительность: ~00:44:00 серия
Качество видео: WEB-DL
Перевод: Профессиональный многоголосый закадровый - NewStudio
Автор перевода: Григорий Сенин

Формат: MKV
Видео: AVC/H.264, 1280x718 (16:9), 23.976 fps, ~3792 Kbps, ~0.172 bit/pixel
Аудио Rus: AC3, 384 kbps, 6 ch, 48 kHz
Аудио Eng: AC3, 384 kbps, 6 ch, 48 kHz
Код:
Код: Выделить всё
Общее
Into the Badlands - В пустыне смерти. Сезон 1. NewStudio. 720p\Into.the.Badlands.s01e01.WEBDL.720p.NewStudio.TV.mkv
Формат                                   : Matroska
Версия формата                           : Version 4 / Version 2
Размер файла                             : 1,43 Гбайт
Продолжительность                        : 44 м.
Общий поток                              : 4653 Кбит/сек
Дата кодирования                         : UTC 2015-11-16 22:28:27
Программа кодирования                    : mkvmerge v8.2.0 ('World of Adventure') 32bit
Библиотека кодирования                   : libebml v1.3.1 + libmatroska v1.4.2
DURATION                                 : 00:44:00.384000000
NUMBER_OF_FRAMES                         : 82512
NUMBER_OF_BYTES                          : 126738432
_STATISTICS_WRITING_APP                  : mkvmerge v8.2.0 ('World of Adventure') 32bit
_STATISTICS_WRITING_DATE_UTC             : 2015-11-16 22:28:27
_STATISTICS_TAGS                         : BPS DURATION NUMBER_OF_FRAMES NUMBER_OF_BYTES

Видео
Идентификатор                            : 1
Формат                                   : AVC
Формат/Информация                        : Advanced Video Codec
Профиль формата                          : [url=http://nnm-club.name/mailto:High@L3.1]High@L3.1[/url]
Параметр CABAC формата                   : Нет
Параметр ReFrames формата                : 2 кадра
Идентификатор кодека                     : V_MPEG4/ISO/AVC
Продолжительность                        : 44 м.
Битрейт                                  : 3792 Кбит/сек
Ширина                                   : 1280 пикселей
Высота                                   : 718 пикселей
Соотношение сторон                       : 16:9
Режим частоты кадров                     : Постоянный
Частота кадров                           : 23,976 кадра/сек
Цветовое пространство                    : YUV
Субдискретизация насыщенности            : 4:2:0
Битовая глубина                          : 8 бит
Тип развёртки                            : Прогрессивная
Бит/(Пиксели*Кадры)                      : 0.172
Размер потока                            : 1,17 Гбайт (82%)
Язык                                     : English
Default                                  : Да
Forced                                   : Нет
Цветовой диапазон                        : Limited
Основные цвета                           : BT.709
Характеристики трансфера                 : BT.709
Коэффициенты матрицы                     : BT.709

Аудио #1
Идентификатор                            : 2
Формат                                   : AC-3
Формат/Информация                        : Audio Coding 3
Расширение режима                        : CM (complete main)
Параметр Endianness формата              : Big
Идентификатор кодека                     : A_AC3
Продолжительность                        : 44 м.
Вид битрейта                             : Постоянный
Битрейт                                  : 384 Кбит/сек
Каналы                                   : 6 каналов
Расположение каналов                     : Front: L C R, Side: L R, LFE
Частота                                  : 48,0 КГц
Метод сжатия                             : С потерями
Размер потока                            : 121 Мбайт (8%)
Заголовок                                : NewStudio.TV
Язык                                     : Russian
Default                                  : Да
Forced                                   : Нет

Аудио #2
Идентификатор                            : 3
Формат                                   : AC-3
Формат/Информация                        : Audio Coding 3
Расширение режима                        : CM (complete main)
Параметр Endianness формата              : Big
Идентификатор кодека                     : A_AC3
Продолжительность                        : 44 м.
Вид битрейта                             : Постоянный
Битрейт                                  : 384 Кбит/сек
Каналы                                   : 6 каналов
Расположение каналов                     : Front: L C R, Side: L R, LFE
Частота                                  : 48,0 КГц
Метод сжатия                             : С потерями
Размер потока                            : 121 Мбайт (8%)
Язык                                     : English
Default                                  : Нет
Forced                                   : Нет
1. The Fort / Форт
2. Fist Like a Bullet / Кулак, подобный пуле
3. White Stork Spreads Wings / Белый аист расправил крылья
4. Two Tigers Subdue Dragons / Два тигра одолевают драконов
5. Snake Creeps Down / Змея сползает
6. Hand of Five Poisons / Рука, что несёт пять ядов
Внимание! Раздача ведётся путём добавления новых серий; при каждом добавлении создаётся новый торрент.
Чтобы начать докачку новой серии, пользователям необходимо сделать следующее:
1. Остановить скачивание;
2. Удалить старый торрент у себя из клиента (старые серии удалять не надо);
3. Скачать новый торрент и запустить его у себя в клиенте вместо старого, при этом указать клиенту путь в старую папку куда и должно происходить скачивание новых серий. Ваш клиент при этом должен произвести хеширование (проверку) старой папки и будет докачивать только те серии, которых у вас ещё нет. Старые серии при этом не удаляются, а продолжают раздаваться! Eсли вы уже удалили старые серии, то предотвратить повторную закачку старых серий можно, отжав галочку в соответствующих местах при запуске нового торрента.

Скриншоты:




Время раздачи: 24/7
Не забывайте говорить Спасибо. Не уходите с раздачи!   
Торрент: Зарегистрирован [20 янв 2018, 15:31]
Статус:
Проверен
 
.torrent скачан: 1 раз
Хэш: fc872a497583acddcda12d9b2ec426dcffd31866
Размер: 8.48 ГБ (9 107 542 748 байт)
   Стать Автором раздачи
   
Цитата

Вернуться в В пустыне смерти / Into the Badlands

Кто сейчас на конференции

Сейчас эту тему просматривают: нет зарегистрированных пользователей и гости: 1