В пустыне смерти / Into the Badlands (2015) WEB-DLRip (сезон 1, серии 1-6 из 6) NewStudio

 Статистика раздачи 
Размер: 3.22 ГБ   |  Зарегистрирован: 20 янв 2018, 15:23   |   .torrent скачан: 1 раз
Сидеров: 3  [ 0 байт/сек ]     Личеров: 2  [ 0 байт/сек ]  
  
Аватара пользователя
 
Раздал: 2.05 ГБ
Скачал: 15.48 ГБ
Ратио: 0.133
Сообщения: 30323
Стаж: 8 лет 6 месяцев 3 дня

В пустыне смерти / Into the Badlands (2015) WEB-DLRip (сезон 1, серии 1-6 из 6)

Производство: США
Жанр: боевик, драма, приключения

Режиссер: Дэвид Добкин
Актеры: Эмили Бичем, Сара Болгер, Орла Брэйди, Мартон Чокаш, Элли Иоаннидес, Арамис Найт, Мадлен Манток, Майкл Сил, Оливер Старк, Дэниэл Ву и др.

Описание:
Приключенческий боевик о двух друзьях. В пустыне смерти, какие испытания предстоит пройти главным героям на пути просвещения. Ради обретения высшей мудрости мастер боевых искусств Санни и его юный напарник решают пройти через неизведанные земли. Они знают, что там их будут встречать враждебно, но ради высшей цели главные герои готовы вынести всё. В основу сюжета сериала был положен китайский роман под названием «Путешествие на Запад». Во время путешествия Санни покажет в полной мере своё мастерство, а его юный друг сможет многому научиться, и владению собственным телом, и контролю над собственным духом.


Дата мировой премьеры: 15 ноября 2015
Дата премьеры в России: 16 ноября 2015

Продолжительность: ~00:44:00 серия
Качество видео: WEB-DLRip
Перевод: Многоголосый закадровый, профессиональный - NewStudio
Автор перевода: Григорий Сенин

Видео: XviD, 720x400 (16:9), ~1460 kb/s
Аудио Rus: MPEG Layer 3, 48,0 kHz, 2 ch, 128 kb/s — многоголосый закадровый
Аудио Eng: MPEG Layer 3, 48,0 kHz, 2 ch, 128 kb/s — оригинал
Общее
Полное имя : D:\В пустыне смерти (сезон 1) Into the Badlands (2015) WEB-DLRip - NewStudio\Into.the.Badlands.s01e01.WEBDLRip.proper.NewStudio.TV.avi
Формат : AVI
Формат/Информация : Audio Video Interleave
Размер файла : 546 Мбайт
Продолжительность : 44 м.
Общий поток : 1728 Кбит/сек
Программа кодирования : VirtualDubMod 1.5.10.2 (build 2540/release)
Библиотека кодирования : VirtualDubMod build 2540/release

Видео
Идентификатор : 0
Формат : MPEG-4 Visual
Профиль формата : Advanced Simple@L5
Параметр BVOP формата : 2
Параметр QPel формата : Нет
Параметр GMC формата : Без точки перехода
Параметр матрицы формата : Default (MPEG)
Идентификатор кодека : XVID
Идентификатор кодека/Подсказка : XviD
Продолжительность : 44 м.
Битрейт : 1458 Кбит/сек
Ширина : 720 пикселей
Высота : 400 пикселей
Соотношение сторон : 16:9
Частота кадров : 23,976 кадра/сек
Цветовое пространство : YUV
Субдискретизация насыщенности : 4:2:0
Битовая глубина : 8 бит
Тип развёртки : Прогрессивная
Метод сжатия : С потерями
Бит/(Пиксели*Кадры) : 0.211
Размер потока : 461 Мбайт (84%)
Библиотека кодирования : XviD 73

Аудио #1
Идентификатор : 1
Формат : MPEG Audio
Версия формата : Version 1
Профиль формата : Layer 3
Режим : Joint stereo
Расширение режима : MS Stereo
Идентификатор кодека : 55
Идентификатор кодека/Подсказка : MP3
Продолжительность : 44 м.
Вид битрейта : Постоянный
Битрейт : 128 Кбит/сек
Каналы : 2 канала
Частота : 48,0 КГц
Метод сжатия : С потерями
Размер потока : 40,4 Мбайт (7%)
Выравнивание : Соединение по промежуткам
Продолжительность промежутка : 42 мс. (1,00 видеокадр)
Время предзагрузки промежутка : 504 мс.

Аудио #2
Идентификатор : 2
Формат : MPEG Audio
Версия формата : Version 1
Профиль формата : Layer 3
Режим : Joint stereo
Идентификатор кодека : 55
Идентификатор кодека/Подсказка : MP3
Продолжительность : 44 м.
Вид битрейта : Постоянный
Битрейт : 128 Кбит/сек
Каналы : 2 канала
Частота : 48,0 КГц
Метод сжатия : С потерями
Размер потока : 40,4 Мбайт (7%)
Выравнивание : Разделение по промежуткам
Продолжительность промежутка : 42 мс. (1,00 видеокадр)
Время предзагрузки промежутка : 500 мс.
Библиотека кодирования : LAME3.99r
Настройки программы : -m j -V 4 -q 2 -lowpass 17 -b 128
01. The Fort / Форт
02. Fist Like a Bullet / Кулак, подобный пуле
03. White Stork Spreads Wings / Белый аист расправил крылья
04. Two Tigers Subdue Dragons / Два тигра одолевают драконов
05. Snake Creeps Down / Змея сползает
06/ Hand of Five Poisons / Рука, что несёт пять ядов

Скриншоты:




Время раздачи: до 3-х скачавших, далее по возможности.
Не забывайте говорить Спасибо. Не уходите с раздачи!   
Торрент: Зарегистрирован [20 янв 2018, 15:23]
Статус:
Проверен
 
.torrent скачан: 1 раз
Хэш: d38a236844b6a6a46eb20a20290d85b255277dbe
Размер: 3.22 ГБ (3 456 149 504 байт)
   Стать Автором раздачи
   
Цитата

Вернуться в В пустыне смерти / Into the Badlands

Кто сейчас на конференции

Сейчас эту тему просматривают: нет зарегистрированных пользователей и гости: 1