Банши / Banshee (2015) HDTVRip (сезон 3, серии 1-10 из 10) Amedia

 Статистика раздачи 
Размер: 6.88 ГБ   |  Зарегистрирован: 20 янв 2018, 14:46   |   .torrent скачан: 0 раз
Сидеров: 4  [ 0 байт/сек ]     Личеров: 0  [ 0 байт/сек ]  
  
Аватара пользователя
 
Раздал: 2.05 ГБ
Скачал: 15.48 ГБ
Ратио: 0.133
Сообщения: 30323
Стаж: 8 лет 4 месяца 6 дней

Банши / Banshee (2015) HDTVRip (сезон 3, серии 1-10 из 10)

«Small Town. Big Secrets»
Производство: США
Жанр: драма, криминал

Перевод: Многоголосый закадровый, профессиональный - Amedia
Синхронизация звука: qqss44
Рип: DriverV

Сэмпл

Режиссер: Мигель Сапочник
Актеры: Энтони Старр, Ивана Миличевич, Рас Блэквелл, Мэтт Сервитто, Триесте Келли Данн, Райанн Шэйн, Фрэнки Фэйзон, Деметриус Гросс, Мэттью Ройч, Хун Ли и др.

Описание фильма:
Главный герой Banshee — бывший заключенный и профессиональный вор, который присваивает себе личность шерифа Банши (городка в Пенсильвании), где он продолжает нарушать закон, хотя ему не дают покоя гангстеры, которых он предал много лет назад.

Продолжительность: ~00:50:00 серия
Качество видео: HDTVRip

Видеокодек: XviD
Формат: AVI
Битрейт видео: ~1500 kb/s
Размер кадра: 720x400 (16:9)
Аудио Rus: (MPEG Layer 3, 48,0 kHz, 2 ch, 192 kb/s) - многоголосый закадровый
Аудио Eng: (MPEG Layer 3, 48,0 kHz, 2 ch, 192 kb/s) - оригинал
Общее
Полное имя : D:\Банши (сезон 3) Banshee (2015) HDTVRip - Amedia\Banshee.S03.E01.HDTVRip.Rus.Eng.DV.Amedia.avi
Формат : AVI
Формат/Информация : Audio Video Interleave
Размер файла : 689 Мбайт
Продолжительность : 50 м.
Общий поток : 1916 Кбит/сек
Программа кодирования : VirtualDubModRus 1.5.10.2 (build 2542/release)
Библиотека кодирования : VirtualDubMod build 2542/release

Видео
Идентификатор : 0
Формат : MPEG-4 Visual
Профиль формата : Advanced Simple@L5
Параметр BVOP формата : 2
Параметр QPel формата : Нет
Параметр GMC формата : Без точки перехода
Параметр матрицы формата : Default (H.263)
Идентификатор кодека : XVID
Идентификатор кодека/Подсказка : XviD
Продолжительность : 50 м.
Битрейт : 1518 Кбит/сек
Ширина : 720 пикселей
Высота : 400 пикселей
Соотношение сторон : 16:9
Частота кадров : 23,976 кадра/сек
Цветовое пространство : YUV
Субдискретизация насыщенности : 4:2:0
Битовая глубина : 8 бит
Тип развёртки : Прогрессивная
Метод сжатия : С потерями
Бит/(Пиксели*Кадры) : 0.220
Размер потока : 546 Мбайт (79%)
Библиотека кодирования : XviD 64

Аудио #1
Идентификатор : 1
Формат : MPEG Audio
Версия формата : Version 1
Профиль формата : Layer 3
Режим : Joint stereo
Идентификатор кодека : 55
Идентификатор кодека/Подсказка : MP3
Продолжительность : 50 м.
Вид битрейта : Постоянный
Битрейт : 192 Кбит/сек
Каналы : 2 канала
Частота : 48,0 КГц
Метод сжатия : С потерями
Размер потока : 69,1 Мбайт (10%)
Выравнивание : Разделение по промежуткам
Продолжительность промежутка : 42 мс. (1,00 видеокадр)
Время предзагрузки промежутка : 500 мс.

Аудио #2
Идентификатор : 2
Формат : MPEG Audio
Версия формата : Version 1
Профиль формата : Layer 3
Режим : Joint stereo
Идентификатор кодека : 55
Идентификатор кодека/Подсказка : MP3
Продолжительность : 50 м.
Вид битрейта : Постоянный
Битрейт : 192 Кбит/сек
Каналы : 2 канала
Частота : 48,0 КГц
Метод сжатия : С потерями
Размер потока : 69,1 Мбайт (10%)
Выравнивание : Разделение по промежуткам
Продолжительность промежутка : 42 мс. (1,00 видеокадр)
Время предзагрузки промежутка : 500 мс.
01. The Fire Trials
02. Snakes and Whatnot
03. A Fixer of Sorts
04. Real Life Is the Nightmare
05. Tribal
06. We Were All Someone Else Yesterday
07. You Can't Hide from the Dead
08. All the Wisdom I Got Left
09. Even God Doesn't Know What to Make of You
10. We All Pay Eventually
Скриншоты:




Время раздачи: 24/7 - круглосуточно (по возможности)
Не забывайте говорить Спасибо. Не уходите с раздачи!   
Торрент: Зарегистрирован [20 янв 2018, 14:46]
Статус:
Проверен
 
.torrent скачан: 0 раз
Хэш: cd85ccf02be7ad18c9d300700704bafebbbd3365
Размер: 6.88 ГБ (7 390 773 248 байт)
   Стать Автором раздачи
   
Цитата
  • Похожие торренты
    Ответы
    Просмотры
    Последнее сообщение

Вернуться в Банши / Banshee

Кто сейчас на конференции

Сейчас эту тему просматривают: нет зарегистрированных пользователей и гости: 1