12 обезьян / 12 Monkeys (2015) WEB-DLRip [H.264/1080p-LQ] (сезон 1, серии 01-13 из 13) (LostFilm)

 Статистика раздачи 
Размер: 23.59 ГБ   |  Зарегистрирован: 20 янв 2018, 14:09   |   .torrent скачан: 0 раз
Сидеров: 3  [ 0 байт/сек ]     Личеров: 4  [ 0 байт/сек ]  
  
Аватара пользователя
 
Раздал: 2.05 ГБ
Скачал: 15.48 ГБ
Ратио: 0.133
Сообщения: 30323
Стаж: 8 лет 11 месяцев 8 дней

12 обезьян / 12 Monkeys (2015) WEB-DLRip [H.264/1080p-LQ] (сезон 1, серии 01-13 из 13) (LostFilm)

Производство: США
Жанр: фантастика, триллер, драма, детектив, приключения

Режиссер: Денни Гордон, Дэвид Бойд, Джон Бэдхем, Майкл Уэксмэн, Джеффри Райнер
Актеры: Аманда Шулл, Кирк Асеведо, Желько Иванек, Шеннон Лусио, Аарон Стэнфорд, Ной Бин, Джоди Лин Броктон, Джордж Седер, Рамон Де Окампо, Рики Уэйн и др.

Описание:
Коул - уголовник из постапокалиптического будущего. Его осудили за дерзкое поведение и неподчинение властям. В конце девяностых некий вирус уничтожил почти всю популяцию людей, а те, кому удалось выжить, укрылись под землей. В то время ученые уже изобрели технологию путешествия во времени, и Коул стал «морской свинкой», на которой эту технологию решили испытать. Он должен добыть для изучения образцы вируса из прошлого и за это получит полное прощение за все содеянное.


Дата мировой премьеры: 16 января 2015

Продолжительность: ~00:47:00 серия
Качество видео: WEB-DLRip 1080p
Перевод: Многоголосый закадровый, профессиональный - LostFilm

Видеокодек: AVC
Битрейт видео: ~5242 Kbps
Размер кадра: 1920x1080 (16:9)
Аудио Rus: (AC-3, 48.0 KHz, 2 ch, 384 Kbps, CBR) - многоголосый закадровый
Аудио Eng: (AC-3, 48.0 KHz, 2 ch, 384 Kbps, CBR) - оригинал
General
Complete name : F:\Сериал\раздача\12.Monkeys.S01.1080p.rus.LostFilm\12.Monkeys.S01E01.1080p.rus.LostFilm.TV.mkv
Format : Matroska
File size : 1.99 GiB
Duration : 47mn 20s
Overall bit rate : 6 011 Kbps
Encoded date : UTC 2015-01-26 18:15:41
Writing application : mkvmerge v4.2.0 ('No Talking') сборка от Jul 28 2010 18:38:23
Writing library : libebml v1.0.0 + libmatroska v1.0.0

Video
ID : 1
Format : AVC
Format/Info : Advanced Video Codec
Format profile : High@L4.0
Format settings, CABAC : Yes
Format settings, ReFrames : 2 frames
Format settings, GOP : M=3, N=4
Muxing mode : Container profile=Unknown@4.0
Codec ID : V_MPEG4/ISO/AVC
Duration : 47mn 20s
Bit rate : 5 242 Kbps
Width : 1 920 pixels
Height : 1 080 pixels
Display aspect ratio : 16:9
Frame rate : 23.976 fps
Color space : YUV
Chroma subsampling : 4:2:0
Bit depth : 8 bits
Scan type : Progressive
Bits/(Pixel*Frame) : 0.105
Stream size : 1.69 GiB (85%)
Writing library : x264 core 112 r1834 a51816a
Encoding settings : cabac=1 / ref=1 / deblock=1:0:0 / analyse=0x3:0x133 / me=umh / subme=7 / psy=1 / psy_rd=1.00:0.00 / mixed_ref=0 / me_range=16 / chroma_me=1 / trellis=1 / 8x8dct=1 / cqm=0 / deadzone=21,11 / fast_pskip=1 / chroma_qp_offset=-2 / threads=6 / sliced_threads=0 / nr=0 / decimate=1 / interlaced=0 / constrained_intra=0 / bframes=5 / b_pyramid=0 / b_adapt=1 / b_bias=0 / direct=3 / weightb=1 / open_gop=0 / weightp=2 / keyint=250 / keyint_min=25 / scenecut=40 / intra_refresh=0 / rc_lookahead=40 / rc=2pass / mbtree=1 / bitrate=5242 / ratetol=1.0 / qcomp=0.60 / qpmin=0 / qpmax=51 / qpstep=4 / cplxblur=20.0 / qblur=0.5 / ip_ratio=1.40 / aq=1:1.00

Audio #1
ID : 2
Format : AC-3
Format/Info : Audio Coding 3
Mode extension : CM (complete main)
Codec ID : A_AC3
Duration : 47mn 20s
Bit rate mode : Constant
Bit rate : 384 Kbps
Channel(s) : 2 channels
Channel positions : Front: L R
Sampling rate : 48.0 KHz
Bit depth : 16 bits
Stream size : 130 MiB (6%)

Audio #2
ID : 3
Format : AC-3
Format/Info : Audio Coding 3
Mode extension : CM (complete main)
Codec ID : A_AC3
Duration : 47mn 20s
Bit rate mode : Constant
Bit rate : 384 Kbps
Channel(s) : 2 channels
Channel positions : Front: L R
Sampling rate : 48.0 KHz
Bit depth : 16 bits
Stream size : 130 MiB (6%)
01. Расщеплённый (Splinter)
02. Девушка с психическими отклонениями (Mentally Divergent)
03. Комплекс Кассандры (Cassandra Complex)
04. Атари (Atari )
05. Ночная комната (The Night Room)
06. Красный лес (The Red Forest)
07. Острова (The Keys)
08. Вчера (Yesterday)
09. Завтра (Tomorrow)
10. Божественный ход (Divine Move)
11. Сёнин (Shonin)
12. Парадокс (Paradox)
13. В моих руках (Arms of Mine)


Скриншоты:




Время раздачи: с 9.00 до 23.00, до первых пяти скачавших
Не забывайте говорить Спасибо. Не уходите с раздачи!   
Торрент: Зарегистрирован [20 янв 2018, 14:09]
Статус:
Проверен
 
.torrent скачан: 0 раз
Хэш: 21a203169e6b6cbdac2c34987a55897609092d37
Размер: 23.59 ГБ (25 324 547 715 байт)
   Стать Автором раздачи
   
Цитата
  • Похожие торренты
    Ответы
    Просмотры
    Последнее сообщение

Вернуться в 12 обезьян / 12 Monkeys

Кто сейчас на конференции

Сейчас эту тему просматривают: нет зарегистрированных пользователей и гости: 1