Библиотекари / The Librarians (2014) WEB-DLRip [H.264/1080p-LQ] (сезон 1, серии 1-10 из 10) (LostFilm)

 Статистика раздачи 
Размер: 19.38 ГБ   |  Зарегистрирован: 20 янв 2018, 13:40   |   .torrent скачан: 0 раз
Сидеров: 3  [ 0 байт/сек ]     Личеров: 1  [ 0 байт/сек ]  
  
Аватара пользователя
 
Раздал: 2.05 ГБ
Скачал: 15.48 ГБ
Ратио: 0.133
Сообщения: 30323
Стаж: 8 лет 1 месяц 6 дней

Библиотекари / The Librarians (2014) WEB-DLRip [H.264/1080p-LQ]
(сезон 1, серии 10 из 10) (LostFilm)

Производство: США
Жанр: приключения

Перевод: Многоголосый закадровый, профессиональный - LostFilm


Режиссер: Дин Девлин, Джонатан Фрейкс
Актеры: Ноа Уайли, Джон Ларрокетт, Ребекка Ромейн, Кристиан Кейн, Джон Ким, Линди Бут, Лесли-Энн Брандт, Джейн Куртин, Боб Ньюхарт, Бен Эндрюс

Описание фильма:
Действие разворачивается в Нью-Йорке, где под зданием обычной публичной библиотеки располагается штаб-квартира таинственного ордена. Главный хранитель Флинн Карсен (Ноа Уайл) возглавляет эту организацию уже десять лет. Его задача — защищать сверхъестественные артефакты (Копье судьбы, Ковчег завета, Эскалибур и другие) от врагов, в том числе от невероятно опасного Змеиного Братства. Оно давно мечтает заполучить ценные реликвии, чтобы использовать их магию в своих целях, а Флинн не справляется в одиночку. Тогда к нему на помощь приходит агент по борьбе с терроризмом Ив Бэрд (Ребекка Ромейн). Вместе они подбирают трех других кандидатов на пост верховного библиотекаря. Так, к команде присоединяется Джейк Стоун (Кристиан Кэйн) — работник нефтяной вышки с IQ 190 и энциклопедическими знаниями в области истории искусств. Вместе с ним на защиту артефактов встает Кассандра Киллиан (Линди Бут) — гений математики с фотографической памятью и способностью создавать визуальные и сенсорные галлюцинации. И, наконец, третьим кандидатом становится Эзекиль Джонс (Джон Ким) — специалист по современным технологиям и вор высшего класса. Вместе они должны найти украденные артефакты и нарушить коварные планы Змеиного Братства.


Дата мировой премьеры: 7 декабря 2014

Продолжительность: ~ 00:57:00 серия
Качество видео: WEB-DLRip

Видеокодек: MPEG-4 AVC/H.264
Битрейт видео: ~5242 Кбит/сек
Размер кадра: 1920х1080 (16:9)
Аудио Rus: AC-3, 48,0 kHz, 2 ch, 384 kb/s - многоголосый закадровый (LostFilm)
Аудио Eng: AC-3, 48,0 kHz, 2 ch, 384 kb/s - оригинал
Общее
Уникальный идентификатор : 186717984831972254532277930989911508518 (0x8C78936891C9BD5B9FE3E56A684F8626)
Полное имя : D:\The.Librarians.S01.WEB-DL_1080p_LostFilm\The.Librarians.S01E01.1080p.rus.LostFilm.TV.mkv
Формат : Matroska
Версия формата : Version 2
Размер файла : 2,43 Гбайт
Продолжительность : 57 м.
Общий поток : 6011 Кбит/сек
Дата кодирования : UTC 2014-12-23 10:47:44
Программа кодирования : mkvmerge v4.2.0 ('No Talking') сборка от Jul 28 2010 18:38:23
Библиотека кодирования : libebml v1.0.0 + libmatroska v1.0.0

Видео
Идентификатор : 1
Формат : AVC
Формат/Информация : Advanced Video Codec
Профиль формата : High@L4.0
Параметр CABAC формата : Да
Параметр ReFrames формата : 2 кадра
Идентификатор кодека : V_MPEG4/ISO/AVC
Продолжительность : 57 м.
Битрейт : 5242 Кбит/сек
Ширина : 1920 пикселей
Высота : 1080 пикселей
Соотношение сторон : 16:9
Режим частоты кадров : Постоянный
Частота кадров : 23,976 кадра/сек
Цветовое пространство : YUV
Субдискретизация насыщенности : 4:2:0
Битовая глубина : 8 бит
Тип развёртки : Прогрессивная
Бит/(Пиксели*Кадры) : 0.105
Размер потока : 2,07 Гбайт (85%)
Библиотека кодирования : x264 core 112 r1834 a51816a
Настройки программы : cabac=1 / ref=1 / deblock=1:0:0 / analyse=0x3:0x133 / me=umh / subme=7 / psy=1 / psy_rd=1.00:0.00 / mixed_ref=0 / me_range=16 / chroma_me=1 / trellis=1 / 8x8dct=1 / cqm=0 / deadzone=21,11 / fast_pskip=1 / chroma_qp_offset=-2 / threads=6 / sliced_threads=0 / nr=0 / decimate=1 / interlaced=0 / constrained_intra=0 / bframes=5 / b_pyramid=0 / b_adapt=1 / b_bias=0 / direct=3 / weightb=1 / open_gop=0 / weightp=2 / keyint=250 / keyint_min=25 / scenecut=40 / intra_refresh=0 / rc_lookahead=40 / rc=2pass / mbtree=1 / bitrate=5242 / ratetol=1.0 / qcomp=0.60 / qpmin=0 / qpmax=51 / qpstep=4 / cplxblur=20.0 / qblur=0.5 / ip_ratio=1.40 / aq=1:1.00
Default : Да
Forced : Нет

Аудио #1
Идентификатор : 2
Формат : AC-3
Формат/Информация : Audio Coding 3
Расширение режима : CM (complete main)
Параметр Endianness формата : Big
Идентификатор кодека : A_AC3
Продолжительность : 57 м.
Вид битрейта : Постоянный
Битрейт : 384 Кбит/сек
Каналы : 2 канала
Расположение каналов : Front: L R
Частота : 48,0 КГц
Битовая глубина : 16 бит
Метод сжатия : С потерями
Размер потока : 159 Мбайт (6%)
Default : Да
Forced : Нет

Аудио #2
Идентификатор : 3
Формат : AC-3
Формат/Информация : Audio Coding 3
Расширение режима : CM (complete main)
Параметр Endianness формата : Big
Идентификатор кодека : A_AC3
Продолжительность : 57 м.
Вид битрейта : Постоянный
Битрейт : 384 Кбит/сек
Каналы : 2 канала
Расположение каналов : Front: L R
Частота : 48,0 КГц
Битовая глубина : 16 бит
Метод сжатия : С потерями
Размер потока : 159 Мбайт (6%)
Default : Нет
Forced : Нет
01. И корона короля Артура / And the Crown of King Arthur
02. И меч в камне / And the Sword in the Stone
03. И рога дилеммы /And the Horns of a Dilemma
04. И полуночное дело Санты /And Santa's Midnight Run
05. И яблоко раздора /And the Apple of Discord
06. И сказки судьбы /And the Fables of Doom
07. И Правило Трёх /And the Rule of Three
08. И Сердце тьмы / And the Heart of Darkness
09. И Город света / And the City of Light
10. И Ткань судьбы / And the Loom of Fate
Скриншоты:




Время раздачи: до первых сидов - потом по возможности
Не забывайте говорить Спасибо. Не уходите с раздачи!   
Торрент: Зарегистрирован [20 янв 2018, 13:40] Для скачивания .torrent
необходима регистрация
Или скачать с помощью
MediaGet
Статус:
Проверен
 
.torrent скачан: 0 раз
Хэш: 299cf3a41330da6a5bb44374ab1a80f3bc6c534e
Размер: 19.38 ГБ (20 814 064 319 байт)
   Стать Автором раздачи
   
Цитата

Вернуться в Библиотекари / The Librarians

Кто сейчас на конференции

Сейчас эту тему просматривают: нет зарегистрированных пользователей и гости: 1