Безумцы / Mad Men (2014) WEB-DL [H.264/720p-LQ] (сезон 7, серии 1-14 из 14) Fox Life

 Статистика раздачи 
Размер: 22.12 ГБ   |  Зарегистрирован: 20 янв 2018, 12:25   |   .torrent скачан: 0 раз
Сидеров: 4  [ 0 байт/сек ]     Личеров: 1  [ 0 байт/сек ]  
  
Аватара пользователя
 
Раздал: 2.05 ГБ
Скачал: 15.48 ГБ
Ратио: 0.133
Сообщения: 30323
Стаж: 8 лет 4 месяца 27 дней

Безумцы / Mad Men (2014) WEB-DL [H.264/720p-LQ] (сезон 7, серии 1-14 из 14) Fox Life

Производство: США
Жанр: драма

Режиссер: Скотт Хорнбеккер, Кристофер Мэнли, Мэтью Уэйнер
Актеры: Джон Хэмм, Элизабет Мосс, Винсент Картайзер, Джэньюэри Джонс, Кристина Хендрикс, Брайан Бэтт, Аарон Стэтон, Рич Соммер, Джон Слэттери и др.

Описание:
США, 60-е годы ХХ века. В центре повествования — работа рекламного Агентства «Стерлинг-Купер», расположенного на престижной Медисон-авеню в центре Нью-Йорка, и жизнь его креативного директора — мастера манипуляций и интриг — Дона Дрейпера. Находясь на вершине карьеры, он противостоит конкурентам, стараясь сберечь своe положение в компании. Служебные и семейные перипетии Дона и его коллег происходят на фоне глобальных событий в жизни американского общества тех лет…



Продолжительность: ~ 00:47:00 серия
Качество видео: WEB-DL 720p
Перевод: Многоголосый закадровый, профессиональный - Fox Life
Вид субтитров: вшитые отключаемые
Язык субтитров: английский

Видео: AVC/H.264, 1280x718 (16:9), ~ 4000 кбит/с
Аудио Rus: AC-3, 48,0 kHz, 2 ch, 192 кбит/с - многоголосый закадровый
Аудио Eng: AC-3, 48,0 kHz, 6 ch, 384 кбит/с - оригинал
Код:
Код: Выделить всё
General
Unique ID                                : 206750569576649559698404950904587008415 (0x9B8AB6178A0459B88B50D8E6B269B99F)
Complete name                            : D:\Video\TV Show\Mad.Men\Mad.Men.S07.720p.WEB-DL.FOX.Life\Mad.Men.S07E01.Time.Zones.720p.WEB-DL.mkv
Format                                   : Matroska
Format version                           : Version 4 / Version 2
File size                                : 1.55 GiB
Duration                                 : 47mn 44s
Overall bit rate                         : 4 648 Kbps
Encoded date                             : UTC 2014-09-23 12:37:47
Writing application                      : mkvmerge v7.2.0 ('On Every Street') 64bit built on Sep 13 2014 15:52:10
Writing library                          : libebml v1.3.0 + libmatroska v1.4.1
DURATION                                 : 00:47:44.064000000
NUMBER_OF_FRAMES                         : 89502
NUMBER_OF_BYTES                          : 68737536
_STATISTICS_WRITING_APP                  : mkvmerge v7.2.0 ('On Every Street') 64bit built on Sep 13 2014 15:52:10
_STATISTICS_WRITING_DATE_UTC             : 2014-09-23 12:37:47
_STATISTICS_TAGS                         : BPS DURATION NUMBER_OF_FRAMES NUMBER_OF_BYTES

Video
ID                                       : 1
Format                                   : AVC
Format/Info                              : Advanced Video Codec
Format profile                           : [url=http://nnm-club.name/mailto:High@L3.1]High@L3.1[/url]
Format settings, CABAC                   : No
Format settings, ReFrames                : 2 frames
Codec ID                                 : V_MPEG4/ISO/AVC
Duration                                 : 47mn 44s
Bit rate                                 : 3 980 Kbps
Width                                    : 1 280 pixels
Height                                   : 718 pixels
Display aspect ratio                     : 16:9
Frame rate mode                          : Constant
Frame rate                               : 23.976 fps
Color space                              : YUV
Chroma subsampling                       : 4:2:0
Bit depth                                : 8 bits
Scan type                                : Progressive
Bits/(Pixel*Frame)                       : 0.181
Stream size                              : 1.33 GiB (86%)
Language                                 : English
Default                                  : Yes
Forced                                   : No
Color primaries                          : BT.709
Transfer characteristics                 : BT.709
Matrix coefficients                      : BT.709

Audio #1
ID                                       : 2
Format                                   : AC-3
Format/Info                              : Audio Coding 3
Mode extension                           : CM (complete main)
Format settings, Endianness              : Big
Codec ID                                 : A_AC3
Duration                                 : 47mn 44s
Bit rate mode                            : Constant
Bit rate                                 : 192 Kbps
Channel(s)                               : 2 channels
Channel positions                        : Front: L R
Sampling rate                            : 48.0 KHz
Bit depth                                : 16 bits
Compression mode                         : Lossy
Stream size                              : 65.6 MiB (4%)
Title                                    : FOX Life
Language                                 : Russian
Default                                  : Yes
Forced                                   : No

Audio #2
ID                                       : 3
Format                                   : AC-3
Format/Info                              : Audio Coding 3
Mode extension                           : CM (complete main)
Format settings, Endianness              : Big
Codec ID                                 : A_AC3
Duration                                 : 47mn 44s
Bit rate mode                            : Constant
Bit rate                                 : 384 Kbps
Channel(s)                               : 6 channels
Channel positions                        : Front: L C R, Side: L R, LFE
Sampling rate                            : 48.0 KHz
Bit depth                                : 16 bits
Compression mode                         : Lossy
Stream size                              : 131 MiB (8%)
Language                                 : English
Default                                  : No
Forced                                   : No

Text
ID                                       : 4
Format                                   : UTF-8
Codec ID                                 : S_TEXT/UTF8
Codec ID/Info                            : UTF-8 Plain Text
Language                                 : English
Default                                  : No
Forced                                   : No
01. Time Zones
02. A Day's Work
03. Field Trip
04. The Monolith
05. The Runaways
06. The Strategy
07. Waterloo
08. Severance
09. New Business
10. The Forecast
11. Time & Life
12. Lost Horizon
13. The Milk and Honey Route
14. Person to Person

Скриншоты:




Время раздачи: 24/7 (до постоянной раздачи)
Не забывайте говорить Спасибо. Не уходите с раздачи!   
Торрент: Зарегистрирован [20 янв 2018, 12:25]
Статус:
Проверен
 
.torrent скачан: 0 раз
Хэш: 2fcbfb76d833fa25c7c724b80fb9ab9f013207d5
Размер: 22.12 ГБ (23 747 319 304 байт)
   Стать Автором раздачи
   
Цитата
  • Похожие торренты
    Ответы
    Просмотры
    Последнее сообщение

Вернуться в Безумцы / Mad Men

Кто сейчас на конференции

Сейчас эту тему просматривают: нет зарегистрированных пользователей и гости: 1