Марко Поло / Marco Polo (2014) WEBRip [H.264/720p-LQ] (сезон 1, серии 1-10 из 10) (NewStudio)

 Статистика раздачи 
Размер: 14.25 ГБ   |  Зарегистрирован: 20 янв 2018, 12:13   |   .torrent скачан: 0 раз
Сидеров: 67  [ 0 байт/сек ]     Личеров: 3  [ 0 байт/сек ]  
  
Аватара пользователя
 
Раздал: 2.05 ГБ
Скачал: 15.48 ГБ
Ратио: 0.133
Сообщения: 30323
Стаж: 8 лет 6 месяцев 6 дней

Марко Поло / Marco Polo (2014) WEBRip [H.264/720p-LQ] (сезон 1, серии 1-10 из 10) (NewStudio)

«Worlds Will Collide»
Производство: США
Жанр: Приключения, драма

Режиссер: Хоаким Роннинг, Эспен Сандберг, Дэвид Петрарка, Алик Сахаров
Актеры: Лоренцо Рикельми, Бенедикт Вонг, Жу Жу, Том Ву, Реми Хий, Рик Юн, Пьерфранческо Фавино, Оливия Ченг, Клаудия Ким, Ули Латукефу, Джоан Чэнь, Чин Хань, Амр Вакед, Амарсайхан Балжиннямын, Коррадо Инверницци, Махеш Джаду, Ерден Телемисов и др.

Описание:
Сюжет сериала основан на приключениях знаменитого исследователя Марко Поло в Китае в 13-м веке.



Релиз от: NewStudio
Продолжительность: ~00:51:00 серия
Качество видео: WEBRip 720p
Перевод: Профессиональный многоголосый закадровый - NewStudio
Автор перевода: Weirdie, Ptyza
Вид субтитров: Вшитые отключаемые
Язык субтитров: Английский

Видео: AVC/H.264, 1280x640 (2:1), 23.976 fps, ~2771 Kbps, ~0.141 bit/pixel
Аудио Rus: AC3, 384 kbps, 6 ch, 48 kHz
Аудио Eng: AC3, 640 kbps, 6 ch, 48 kHz
Код: Выделить всё
Общее
Marco Polo - Марко Поло. Сезон 1. NewStudio. 720p\Marco.Polo.s01e01.WEB.720p.NewStudio.TV.mkv
Формат                                   : Matroska
Версия формата                           : Version 4 / Version 2
Размер файла                             : 1,38 Гбайт
Продолжительность                        : 51 м.
Общий поток                              : 3872 Кбит/сек
Дата кодирования                         : UTC 2014-12-14 22:55:49
Программа кодирования                    : mkvmerge v7.1.0 ('Good Love') 64bit
Библиотека кодирования                   : libebml v1.3.0 + libmatroska v1.4.1
_STATISTICS_WRITING_APP                  : mkvmerge v7.1.0 ('Good Love') 64bit
_STATISTICS_WRITING_DATE_UTC             : 2014-12-14 22:55:49
_STATISTICS_TAGS                         : BPS DURATION NUMBER_OF_FRAMES NUMBER_OF_BYTES
DURATION                                 : 00:51:10.048000000
NUMBER_OF_FRAMES                         : 95939
NUMBER_OF_BYTES                          : 147362304

Видео
Идентификатор                            : 1
Формат                                   : AVC
Формат/Информация                        : Advanced Video Codec
Профиль формата                          : [url=http://nnm-club.name/mailto:High@L4.1]High@L4.1[/url]
Параметр CABAC формата                   : Да
Параметр ReFrames формата                : 10 кадров
Идентификатор кодека                     : V_MPEG4/ISO/AVC
Продолжительность                        : 51 м.
Битрейт                                  : 2771 Кбит/сек
Ширина                                   : 1280 пикселей
Высота                                   : 640 пикселей
Соотношение сторон                       : 2,000
Режим частоты кадров                     : Постоянный
Частота кадров                           : 23,976 кадра/сек
Цветовое пространство                    : YUV
Субдискретизация насыщенности            : 4:2:0
Битовая глубина                          : 8 бит
Тип развёртки                            : Прогрессивная
Бит/(Пиксели*Кадры)                      : 0.141
Размер потока                            : 1014 Мбайт (72%)
Библиотека кодирования                   : x264 core 142 r2479 dd79a61
Настройки программы                      : cabac=1 / ref=10 / deblock=1:-3:-3 / analyse=0x3:0x133 / me=umh / subme=10 / psy=1 / psy_rd=1.00:0.00 / mixed_ref=1 / me_range=48 / chroma_me=1 / trellis=2 / 8x8dct=1 / cqm=0 / deadzone=6,6 / fast_pskip=0 / chroma_qp_offset=-2 / threads=12 / lookahead_threads=2 / sliced_threads=0 / nr=0 / decimate=0 / interlaced=0 / bluray_compat=0 / constrained_intra=0 / bframes=7 / b_pyramid=2 / b_adapt=2 / b_bias=0 / direct=3 / weightb=1 / open_gop=0 / weightp=2 / keyint=250 / keyint_min=24 / scenecut=40 / intra_refresh=0 / rc_lookahead=250 / rc=crf / mbtree=1 / crf=15.5 / qcomp=0.70 / qpmin=0 / qpmax=69 / qpstep=4 / vbv_maxrate=38000 / vbv_bufsize=30000 / crf_max=0.0 / nal_hrd=none / filler=0 / ip_ratio=1.10 / aq=1:0.70
Язык                                     : English
Default                                  : Да
Forced                                   : Нет
_STATISTICS_WRITING_APP                  : mkvmerge v7.1.0 ('Good Love') 64bit
_STATISTICS_WRITING_DATE_UTC             : 2014-12-14 22:55:49
_STATISTICS_TAGS                         : BPS DURATION NUMBER_OF_FRAMES NUMBER_OF_BYTES
DURATION                                 : 00:51:10.985000000
NUMBER_OF_FRAMES                         : 73630
NUMBER_OF_BYTES                          : 1092637514

Аудио #1
Идентификатор                            : 2
Формат                                   : AC-3
Формат/Информация                        : Audio Coding 3
Расширение режима                        : CM (complete main)
Параметр Endianness формата              : Big
Идентификатор кодека                     : A_AC3
Продолжительность                        : 51 м.
Вид битрейта                             : Постоянный
Битрейт                                  : 384 Кбит/сек
Каналы                                   : 6 каналов
Расположение каналов                     : Front: L C R, Side: L R, LFE
Частота                                  : 48,0 КГц
Битовая глубина                          : 16 бит
Метод сжатия                             : С потерями
Размер потока                            : 141 Мбайт (10%)
Заголовок                                : NewStudio.TV
Язык                                     : Russian
Default                                  : Да
Forced                                   : Нет

Аудио #2
Идентификатор                            : 3
Формат                                   : AC-3
Формат/Информация                        : Audio Coding 3
Расширение режима                        : CM (complete main)
Параметр Endianness формата              : Big
Идентификатор кодека                     : A_AC3
Продолжительность                        : 51 м.
Вид битрейта                             : Постоянный
Битрейт                                  : 640 Кбит/сек
Каналы                                   : 6 каналов
Расположение каналов                     : Front: L C R, Side: L R, LFE
Частота                                  : 48,0 КГц
Битовая глубина                          : 16 бит
Метод сжатия                             : С потерями
Размер потока                            : 234 Мбайт (17%)
Язык                                     : English
Default                                  : Нет
Forced                                   : Нет
01. The Wayfarer / Странник
02. The Wolf and the Deer / Волк и Олень
03. Feast / Пир
04. The Fourth Step / Четвёртый шаг
05. Hashshashin / Хашашин
06. White Moon / Белая Луна
07. The Scholar's Pen / Перо на пергамент
08. Rendering / Фреска
09. Prisoners / Пленники
10. The Heavenly and Primal /
Внимание! Раздача ведётся путём добавления новых серий; при каждом добавлении создаётся новый торрент.
Чтобы начать докачку новой серии, пользователям необходимо сделать следующее:
1. Остановить скачивание;
2. Удалить старый торрент у себя из клиента (старые серии удалять не надо);
3. Скачать новый торрент и запустить его у себя в клиенте вместо старого, при этом указать клиенту путь в старую папку куда и должно происходить скачивание новых серий. Ваш клиент при этом должен произвести хеширование (проверку) старой папки и будет докачивать только те серии, которых у вас ещё нет. Старые серии при этом не удаляются, а продолжают раздаваться! Eсли вы уже удалили старые серии, то предотвратить повторную закачку старых серий можно, отжав галочку в соответствующих местах при запуске нового торрента.

Скриншоты:




Время раздачи: 24/7
Не забывайте говорить Спасибо. Не уходите с раздачи!   
Торрент: Зарегистрирован [20 янв 2018, 12:13]
Статус:
Проверен
 
.torrent скачан: 0 раз
Хэш: 09539ebc83201c515c22c39c12baa8df0a2372e3
Размер: 14.25 ГБ (15 295 800 701 байт)
   Стать Автором раздачи
   
Цитата

Вернуться в Марко Поло / Marco Polo

Кто сейчас на конференции

Сейчас эту тему просматривают: нет зарегистрированных пользователей и гости: 1