Библиотекари / The Librarians (2014) WEB-DLRip (сезон 1, серии 1-10 из 10) (ViruseProject)

 Статистика раздачи 
Размер: 5.46 ГБ   |  Зарегистрирован: 20 янв 2018, 11:57   |   .torrent скачан: 0 раз
Сидеров: 0  [ 0 байт/сек ]     Личеров: 0  [ 0 байт/сек ]  
  
Аватара пользователя
 
Раздал: 2.05 ГБ
Скачал: 15.48 ГБ
Ратио: 0.133
Сообщения: 30323
Стаж: 8 лет 1 месяц 1 день

Библиотекари / The Librarians (2014) WEB-DLRip (сезон 1, серии 1-10 из 10) (ViruseProject)

Производство: США
Жанр: приключения

Перевод: Многоголосый закадровый, профессиональный - ViruseProject

Озвучка: Елена Емельянова, Татьяна Романовская, Дмитрий Кравченко, Дмитрий Иванов и Алексей Кизуб
Автор перевода, подготовка видео: Евгений Шаров
Редактор текста Анна Марченко
Сведение звука, монтаж: Дмитрий Иванов


Дата мировой премьеры: 7 декабря 2014

Режиссер: Дин Девлин, Марк Роскин, Джонатан Фрейкс
Актеры: Ребекка Ромейн, Кристиан Кэйн, Джон Ким, Линди Бут, Джон Ларрокетт, Ноа Уайли, Лесли-Энн Брандт, Боб Ньюхарт, Джейн Куртин, Мэтт Фрюэр и др.

Описание фильма:
Если зайти в здание нью-йоркской публичной библиотеки, повернуть направо, шагнуть в магический портал и спуститься в лифте на самый нижний этаж, то попадешь в Библиотеку - хранилище древних знаний и опасных магических артефактов. Там работают Библиотекарь и его помощники, которые спасают мир каждый день (по пятницам - дважды).
Новый приключенческий сериал от канала TNT, основанный на персонажах всемирно известной серии фильмов Дэвида Титчера.

Продолжительность: ~00:55:00 серия
Качество видео: WEB-DLRip
Сэмпл

Видеокодек: Xvid
Битрейт видео: ~1498 kbps avg
Размер кадра: 720x400 (1.80:1)
Аудиокодек: MP3
Битрейт аудио: 2 ch, 128.00 kbps avg
General
Complete name : E:\ОЗВУЧКА\СЕРИАЛЫ №2\The.Librarians.S01.ViruseProject\The.Librarians.S01.ViruseProject\The.Librarians.S01E01.ViruseProject.avi
Format : AVI
Format/Info : Audio Video Interleave
File size : 679 MiB
Duration : 57mn 56s
Overall bit rate : 1 638 Kbps
Writing application : VirtualDubMod 1.5.10.2 (build 2540/release)
Writing library : VirtualDubMod build 2540/release

Video
ID : 0
Format : MPEG-4 Visual
Format profile : Advanced Simple@L5
Format settings, BVOP : 2
Format settings, QPel : No
Format settings, GMC : No warppoints
Format settings, Matrix : Default (H.263)
Muxing mode : Packed bitstream
Codec ID : XVID
Codec ID/Hint : XviD
Duration : 57mn 56s
Bit rate : 1 501 Kbps
Width : 720 pixels
Height : 400 pixels
Display aspect ratio : 16:9
Frame rate : 23.976 fps
Color space : YUV
Chroma subsampling : 4:2:0
Bit depth : 8 bits
Scan type : Progressive
Compression mode : Lossy
Bits/(Pixel*Frame) : 0.217
Stream size : 622 MiB (92%)
Writing library : XviD 1.2.1 (UTC 2008-12-04)

Audio
ID : 1
Format : MPEG Audio
Format version : Version 1
Format profile : Layer 3
Mode : Joint stereo
Mode extension : MS Stereo
Codec ID : 55
Codec ID/Hint : MP3
Duration : 57mn 56s
Bit rate mode : Constant
Bit rate : 128 Kbps
Channel(s) : 2 channels
Sampling rate : 48.0 KHz
Compression mode : Lossy
Stream size : 53.0 MiB (8%)
Alignment : Aligned on interleaves
Interleave, duration : 42 ms (1.00 video frame)
Interleave, preload duration : 504 ms
Скриншоты:


Время раздачи: как получится
Не забывайте говорить Спасибо. Не уходите с раздачи!   
Торрент: Зарегистрирован [20 янв 2018, 11:57] Для скачивания .torrent
необходима регистрация
Или скачать с помощью
MediaGet
Статус:
Проверен
 
.torrent скачан: 0 раз
Хэш: 0e3ad485fabc7b25f869a00a2312125874ee206f
Размер: 5.46 ГБ (5 864 163 328 байт)
   Стать Автором раздачи
   
Цитата

Вернуться в Библиотекари / The Librarians

Кто сейчас на конференции

Сейчас эту тему просматривают: нет зарегистрированных пользователей и гости: 1