Банши / Banshee (2015) WEB-DLRip [H.264/720p-LQ] (сезон 3, серии 1-10 из 10) NewStudio, Amedia

 Статистика раздачи 
Размер: 22.12 ГБ   |  Зарегистрирован: 20 янв 2018, 11:57   |   .torrent скачан: 0 раз
Сидеров: 4  [ 0 байт/сек ]     Личеров: 1  [ 0 байт/сек ]  
  
Аватара пользователя
 
Раздал: 2.05 ГБ
Скачал: 15.48 ГБ
Ратио: 0.133
Сообщения: 30323
Стаж: 8 лет 4 месяца 6 дней

Банши / Banshee (2015) WEB-DLRip [H.264/720p-LQ] (сезон 3, серии 1-10 из 10) NewStudio, Amedia

Производство: "Your Face Goes Here Entertainment", "Cinemax", США
Жанр: драма, криминал, детектив

Перевод:
многоголосый закадровый, профессиональный - NewStudio
многоголосый закадровый, профессиональный - Amedia

Режиссер: Мигель Сапочник, Грег Яйтанс
Актеры: Энтони Старр, Ивана Миличевич, Хун Ли, Рас Блэквелл, Триесте Келли Данн, Лили Симмонс, Фрэнки Фэйзон, Мэтт Сервитто, Деметриус Гросс, Ульрих Томсен, Райанн Шэйн, Бен Кросс, Энтони Руйвивар, Мэттью Ройч

Описание фильма:
Главный герой Banshee — бывший заключенный и профессиональный вор, который присваивает себе личность шерифа Банши (городка в Пенсильвании), где он продолжает нарушать закон, хотя ему не дают покоя гангстеры, которых он предал много лет назад.

СЭМПЛ
Дата мировой премьеры: 10.01.2015
Дата российской премьеры: 10.01.2015

Продолжительность: ~ 00:50:00 серия
Качество видео: WEB-DLRip

Видеокодек: AVC/H.264
Битрейт видео: ~5000 Kbps
Размер кадра: 1280x720 (16:9)
Аудио #1: /RUS/ AC3, 5.1 ch, 384 Kbps - многоголосый закадровый - NewStudio
Аудио #1: /RUS/ AC3, 5.1 ch, 384 Kbps - многоголосый закадровый - Amedia
Аудио #3: /ENG/ AC3, 5.1 ch, 384 Kbps - оригинал
Код:
Код: Выделить всё
Общее
Уникальный идентификатор                 : 205653417519103005375715374648007529670 (0x9AB76851B1D32D4FB82D1D75AB6B14C6)
Полное имя                               : E:\DOWNLOADS\Банши (3 сезон) 2015 WEB-DLRip 720\Банши 3 - 01 серия.mkv
Формат                                   : Matroska
Версия формата                           : Version 4 / Version 2
Размер файла                             : 2,16 Гбайт
Продолжительность                        : 50 м.
Общий поток                              : 6155 Кбит/сек
Дата кодирования                         : UTC 2015-02-16 09:02:14
Программа кодирования                    : mkvmerge v6.1.0 ('Old Devil') built on Mar  4 2013 09:10:42
Библиотека кодирования                   : libebml v1.3.0 + libmatroska v1.4.0

Видео
Идентификатор                            : 1
Формат                                   : AVC
Формат/Информация                        : Advanced Video Codec
Профиль формата                          : [url=http://nnm-club.name/mailto:High@L4.1]High@L4.1[/url]
Параметр CABAC формата                   : Да
Параметр ReFrames формата                : 9 кадров
Идентификатор кодека                     : V_MPEG4/ISO/AVC
Продолжительность                        : 50 м.
Битрейт                                  : 5000 Кбит/сек
Ширина                                   : 1280 пикселей
Высота                                   : 720 пикселей
Соотношение сторон                       : 16:9
Режим частоты кадров                     : Постоянный
Частота кадров                           : 23,976 кадра/сек
Цветовое пространство                    : YUV
Субдискретизация насыщенности            : 4:2:0
Битовая глубина                          : 8 бит
Тип развёртки                            : Прогрессивная
Бит/(Пиксели*Кадры)                      : 0.226
Размер потока                            : 1,72 Гбайт (79%)
Библиотека кодирования                   : x264 core 144 r2525kMod 40bb568
Настройки программы                      : cabac=1 / ref=9 / deblock=1:-3:-3 / analyse=0x3:0x113 / me=umh / subme=11 / psy=1 / fade_compensate=0.00 / psy_rd=1.00:0.00 / mixed_ref=1 / me_range=32 / chroma_me=1 / trellis=2 / 8x8dct=1 / cqm=0 / deadzone=21,11 / fast_pskip=0 / chroma_qp_offset=-3 / threads=12 / lookahead_threads=2 / sliced_threads=0 / nr=0 / decimate=1 / interlaced=0 / bluray_compat=0 / constrained_intra=0 / fgo=0 / bframes=9 / b_pyramid=2 / b_adapt=2 / b_bias=0 / direct=1 / weightb=1 / open_gop=0 / weightp=2 / keyint=230 / keyint_min=23 / scenecut=40 / intra_refresh=0 / rc_lookahead=40 / rc=2pass / mbtree=0 / bitrate=5000 / ratetol=1.0 / qcomp=0.70 / qpmin=0 / qpmax=69 / qpstep=4 / cplxblur=20.0 / qblur=0.5 / vbv_maxrate=50000 / vbv_bufsize=62500 / nal_hrd=none / filler=0 / ip_ratio=1.40 / pb_ratio=1.30 / aq=3:0.80
Default                                  : Да
Forced                                   : Нет

Аудио #1
Идентификатор                            : 2
Формат                                   : AC-3
Формат/Информация                        : Audio Coding 3
Расширение режима                        : CM (complete main)
Параметр Endianness формата              : Big
Идентификатор кодека                     : A_AC3
Продолжительность                        : 50 м.
Вид битрейта                             : Постоянный
Битрейт                                  : 384 Кбит/сек
Каналы                                   : 6 каналов
Расположение каналов                     : Front: L C R, Side: L R, LFE
Частота                                  : 48,0 КГц
Битовая глубина                          : 16 бит
Метод сжатия                             : С потерями
Размер потока                            : 138 Мбайт (6%)
Заголовок                                : NewStudio
Язык                                     : Russian
Default                                  : Да
Forced                                   : Нет

Аудио #2
Идентификатор                            : 3
Формат                                   : AC-3
Формат/Информация                        : Audio Coding 3
Расширение режима                        : CM (complete main)
Параметр Endianness формата              : Big
Идентификатор кодека                     : A_AC3
Продолжительность                        : 50 м.
Вид битрейта                             : Постоянный
Битрейт                                  : 384 Кбит/сек
Каналы                                   : 6 каналов
Расположение каналов                     : Front: L C R, Side: L R, LFE
Частота                                  : 48,0 КГц
Битовая глубина                          : 16 бит
Метод сжатия                             : С потерями
Размер потока                            : 138 Мбайт (6%)
Заголовок                                : Amedia
Язык                                     : Russian
Default                                  : Нет
Forced                                   : Нет

Аудио #3
Идентификатор                            : 4
Формат                                   : AC-3
Формат/Информация                        : Audio Coding 3
Расширение режима                        : CM (complete main)
Параметр Endianness формата              : Big
Идентификатор кодека                     : A_AC3
Продолжительность                        : 50 м.
Вид битрейта                             : Постоянный
Битрейт                                  : 384 Кбит/сек
Каналы                                   : 6 каналов
Расположение каналов                     : Front: L C R, Side: L R, LFE
Частота                                  : 48,0 КГц
Битовая глубина                          : 16 бит
Метод сжатия                             : С потерями
Размер потока                            : 138 Мбайт (6%)
Заголовок                                : Original
Язык                                     : English
Default                                  : Нет
Forced                                   : Нет
01 серия - The Fire Trials / Испытание огнем
02 серия - Snakes and Whatnot / Змеи и вообще
03 серия - A Fixer of Sorts / Я решаю проблемы
04 серия - Real Life Is The Nightmare / Реальность это кошмар
05 серия - Tribal / Племя
06 серия - We Were All Someone Else Yesterday / Вчера мы были другими
07 серия - You Can't Hide From The Dead / От мертвых не спрячешься
08 серия - All The Wisdom I Got Left / Вся мудрость, что у меня осталась
09 серия - Even God Doesn't Know What to Make of You / Даже Бог не знает, что с тобой делать
10 серия - We All Pay Eventually / Мы все заплатим, рано или поздно
Скриншоты:





Время раздачи: с 10.00 до 20.00
Не забывайте говорить Спасибо. Не уходите с раздачи!   
Торрент: Зарегистрирован [20 янв 2018, 11:57]
Статус:
Проверен
 
.torrent скачан: 0 раз
Хэш: 51bda6d907f4dad8254380008f806797c1502c3b
Размер: 22.12 ГБ (23 746 008 444 байт)
   Стать Автором раздачи
   
Цитата
  • Похожие торренты
    Ответы
    Просмотры
    Последнее сообщение

Вернуться в Банши / Banshee

Кто сейчас на конференции

Сейчас эту тему просматривают: нет зарегистрированных пользователей и гости: 1