Форс-мажоры / Костюмы в законе / Suits (2014) WEB-DLRip (сезон 4, серии 1-16 из 16) To4ka

 Статистика раздачи 
Размер: 7.03 ГБ   |  Зарегистрирован: 20 янв 2018, 11:30   |   .torrent скачан: 0 раз
Сидеров: 0  [ 0 байт/сек ]     Личеров: 0  [ 0 байт/сек ]  
  
Аватара пользователя
 
Раздал: 2.05 ГБ
Скачал: 15.48 ГБ
Ратио: 0.133
Сообщения: 30323
Стаж: 8 лет 4 месяца 27 дней

Форс-мажоры / Костюмы в законе / Suits (2014) WEB-DLRip (сезон 4, серии 1-16 из 16)

«Two Lawyers. One Degree»
Производство: США
Жанр: драма, комедия

Перевод: Многоголосый закадровый, любительский - To4ka

Автор перевоад: Релиз-группа "To4kaTranslate"
Редактор перевода: Оксана Графутко
Озвучка: Александр Нелюбин, Андрей Хомяков, Ирина Грачева и Марина Комчарукова
Сведение звука: Дмитрий Ульчик

Сэмпл

Режиссер: Кевин Брэй, Джон Скотт, Майкл Смит
Актеры: Патрик Дж. Адамс, Гэбриел Махт, Меган Маркл, Джина Торрес, Рик Хоффман и др.

Описание фильма:
Убегая после неудачной попытки сбыта наркотиков, юрист-самоучка Майк Росс, выдающий себя за выпускника Гарварда, попадает на собеседование к одному из лучших адвокатов по сделкам Нью-Йорка Харви Спектру. Устав от скучных соискателей, мечтающих «верой и правдой служить букве закона», Харви рискует и нанимает Майка: у парня врожденный талант и фотографическая память. Так рождается один из самых неоднозначных, но, в то же время, и самых блестящих тандемов законников на Манхэттене.

Продолжительность: ~00:43:00 серия
Качество видео: WEB-DLRip

Видеокодек: XviD
Формат: AVI
Битрейт видео: ~1200 kb/s
Размер кадра: 720x400 (16:9)
Аудио Rus: (MPEG Layer 3, 48,0 KHz, 2 ch, 128 kb/s) — многоголосый закадровый
Аудио Eng: (MPEG Layer 3, 48,0 KHz, 2 ch, 128 kb/s) — оригинал
Общее
Полное имя : D:\Форс-мажоры (Сезон 4) Suits (2014) WEB-DLRip - To4ka\Suits.s04e01.WEB-DLRip.Rus.Eng.To4ka.avi
Формат : AVI
Формат/Информация : Audio Video Interleave
Размер файла : 450 Мбайт
Продолжительность : 43 м.
Общий поток : 1463 Кбит/сек
Программа кодирования : VirtualDubModRus 1.5.10.2 (build 2542/release)
Библиотека кодирования : VirtualDubMod build 2542/release

Видео
Идентификатор : 0
Формат : MPEG-4 Visual
Профиль формата : Advanced Simple@L5
Параметр BVOP формата : 1
Параметр QPel формата : Нет
Параметр GMC формата : Без точки перехода
Параметр матрицы формата : Default (MPEG)
Идентификатор кодека : XVID
Идентификатор кодека/Подсказка : XviD
Продолжительность : 43 м.
Битрейт : 1193 Кбит/сек
Ширина : 720 пикселей
Высота : 400 пикселей
Соотношение сторон : 16:9
Частота кадров : 23,976 кадра/сек
Цветовое пространство : YUV
Субдискретизация насыщенности : 4:2:0
Битовая глубина : 8 бит
Тип развёртки : Прогрессивная
Метод сжатия : С потерями
Бит/(Пиксели*Кадры) : 0.173
Размер потока : 367 Мбайт (82%)
Библиотека кодирования : XviD 64

Аудио #1
Идентификатор : 1
Формат : MPEG Audio
Версия формата : Version 1
Профиль формата : Layer 3
Режим : Joint stereo
Расширение режима : MS Stereo
Идентификатор кодека : 55
Идентификатор кодека/Подсказка : MP3
Продолжительность : 43 м.
Вид битрейта : Постоянный
Битрейт : 128 Кбит/сек
Каналы : 2 канала
Частота : 48,0 КГц
Метод сжатия : С потерями
Размер потока : 39,4 Мбайт (9%)
Выравнивание : Соединение по промежуткам
Продолжительность промежутка : 42 мс. (1,00 видеокадр)
Время предзагрузки промежутка : 504 мс.

Аудио #2
Идентификатор : 2
Формат : MPEG Audio
Версия формата : Version 1
Профиль формата : Layer 3
Режим : Joint stereo
Расширение режима : MS Stereo
Идентификатор кодека : 55
Идентификатор кодека/Подсказка : MP3
Продолжительность : 43 м.
Вид битрейта : Постоянный
Битрейт : 128 Кбит/сек
Каналы : 2 канала
Частота : 48,0 КГц
Метод сжатия : С потерями
Размер потока : 39,4 Мбайт (9%)
Выравнивание : Соединение по промежуткам
Продолжительность промежутка : 42 мс. (1,00 видеокадр)
Время предзагрузки промежутка : 504 мс.
Скриншоты:




Время раздачи: 24/7 - круглосуточно (по возможности)
Не забывайте говорить Спасибо. Не уходите с раздачи!   
Торрент: Зарегистрирован [20 янв 2018, 11:30]
Статус:
Проверен
 
.torrent скачан: 0 раз
Хэш: c12fe4d46993161799901cc5c6c277a8609b02f7
Размер: 7.03 ГБ (7 552 483 328 байт)
   Стать Автором раздачи
   
Цитата

Вернуться в Форс-мажоры / Suits

Кто сейчас на конференции

Сейчас эту тему просматривают: нет зарегистрированных пользователей и гости: 1