Американцы / The Americans (2015) WEBDLRip (сезон 3, серии 01-13 из 13) NewStudio

 Статистика раздачи 
Размер: 7.1 ГБ   |  Зарегистрирован: 20 янв 2018, 05:01   |   .torrent скачан: 0 раз
Сидеров: 2  [ 0 байт/сек ]     Личеров: 0  [ 0 байт/сек ]  
  
Аватара пользователя
 
Раздал: 2.05 ГБ
Скачал: 15.48 ГБ
Ратио: 0.133
Сообщения: 30323
Стаж: 8 лет 3 месяца 24 дня

Американцы / The Americans (2015) WEBDLRip (сезон 3, серии 01-13 из 13)

Производство: США, DreamWorks Television
Жанр: триллер, драма, криминал

Режиссер: Дэниэл Сакхейм, Адам Аркин, Джон Дал
Актеры: Кери Рассел, Мэттью Риз, Ноа Эммерик, Холли Тейлор, Кейдрич Селлати, Аннет Махендру, Ричард Томас, Сьюзэн Миснер, Элисон Райт, Лев Горн и др.

Описание:
История о сложном браке двух агентов КГБ, которые под видом американцев заселяются в пригород Вашингтона сразу после того, как президентом избирают Рейгана. Подставной брак Филлипа и Элизабет с каждым днем становится все более настоящим и эмоциональным, несмотря на эскалацию холодной войны и опасные отношения, которые они должны поддерживать с сетью шпионов и информаторов. Напряжение нарастает, когда появляется новый сосед Стэн, агент ФБР, который работает в контрразведке.



Продолжительность: ~00:50:00 серия
Качество видео: WEBDLRip
Перевод: Многоголосый закадровый, профессиональный - NewStudio
Автор перевода: Weirdie

Видеокодек: XviD
Битрейт видео: ~1292 Kbps
Размер кадра: 720х400 (16:9)
Аудио #1 Rus: MP3, 48.0 KHz, 2 ch, 128 Kbps, CBR (многоголосый закадровый)
Аудио #2 Eng: MP3, 48.0 KHz, 2 ch, 128 Kbps, CBR (оригинал)
General
Complete name : F:\Сериал\раздача\The.Americans.s03.WEBDLRip.NewStudio\The.Americans.s03e01.WEBDLRip.NewStudio.TV.avi
Format : AVI
Format/Info : Audio Video Interleave
File size : 550 MiB
Duration : 49mn 15s
Overall bit rate : 1 561 Kbps
Writing application : VirtualDubMod 1.5.10.2 (build 2540/release)
Writing library : VirtualDubMod build 2540/release

Video
ID : 0
Format : MPEG-4 Visual
Format profile : Advanced Simple@L5
Format settings, BVOP : Yes
Format settings, QPel : No
Format settings, GMC : No warppoints
Format settings, Matrix : Default (MPEG)
Codec ID : XVID
Codec ID/Hint : XviD
Duration : 49mn 15s
Bit rate : 1 292 Kbps
Width : 720 pixels
Height : 400 pixels
Display aspect ratio : 16:9
Frame rate : 23.976 fps
Color space : YUV
Chroma subsampling : 4:2:0
Bit depth : 8 bits
Scan type : Progressive
Bits/(Pixel*Frame) : 0.187
Stream size : 455 MiB (83%)
Writing library : XviD 64

Audio #1
ID : 1
Format : MPEG Audio
Format version : Version 1
Format profile : Layer 3
Mode : Joint stereo
Mode extension : MS Stereo
Codec ID : 55
Codec ID/Hint : MP3
Duration : 49mn 15s
Bit rate mode : Constant
Bit rate : 128 Kbps
Channel(s) : 2 channels
Sampling rate : 48.0 KHz
Stream size : 45.1 MiB (8%)
Alignment : Aligned on interleaves
Interleave, duration : 42 ms (1.00 video frame)
Interleave, preload duration : 504 ms

Audio #2
ID : 2
Format : MPEG Audio
Format version : Version 1
Format profile : Layer 3
Mode : Joint stereo
Mode extension : MS Stereo
Codec ID : 55
Codec ID/Hint : MP3
Duration : 49mn 15s
Bit rate mode : Constant
Bit rate : 128 Kbps
Channel(s) : 2 channels
Sampling rate : 48.0 KHz
Stream size : 45.1 MiB (8%)
Alignment : Aligned on interleaves
Interleave, duration : 42 ms (1.00 video frame)
Interleave, preload duration : 504 ms
Writing library : LAME3.99r
Encoding settings : -m j -V 4 -q 2 -lowpass 17 -b 128
01. EST Men / Семинар Эрхарда
02. Baggage / Багаж
03. Open House / Дом на продажу
04. Dimebag / Травы на десятку
05. Salang Pass / Перевал Саланг
06. Born Again / Заново рождённая
07. Walter Taffet / Уолтер Таффет
08. Divestment / Разоблачение
09. Do Mail Robots Dream of Electric Sheep? / Мечтают ли почтовые роботы об электроовцах?
10. Stingers / Осы
11. One Day in the Life of Anton Baklanov / Один день из жизни Антона Бакланова
12. I Am Abassin Zadran / Я Абассин Задран
13. March 8, 1983 / 8 Марта 1983

Скриншоты:





Время раздачи: 24/7 - круглосуточно (по возможности)
Не забывайте говорить Спасибо. Не уходите с раздачи!   
Торрент: Зарегистрирован [20 янв 2018, 05:01]
Статус:
Проверен
 
.torrent скачан: 0 раз
Хэш: f1f88e03280e063ebb4ce36587206f14bdbb8b1d
Размер: 7.1 ГБ (7 618 308 096 байт)
   Стать Автором раздачи
   
Цитата

Вернуться в Американцы / The Americans

Кто сейчас на конференции

Сейчас эту тему просматривают: нет зарегистрированных пользователей и гости: 1