12 обезьян / 12 Monkeys (2015) WEB-DLRip (сезон 1, серии 1-13 из 13) LostFilm

 Статистика раздачи 
Размер: 5.42 ГБ   |  Зарегистрирован: 20 янв 2018, 04:49   |   .torrent скачан: 1 раз
Сидеров: 8  [ 0 байт/сек ]     Личеров: 3  [ 0 байт/сек ]  
  
Аватара пользователя
 
Раздал: 2.05 ГБ
Скачал: 15.48 ГБ
Ратио: 0.133
Сообщения: 30323
Стаж: 8 лет 11 месяцев 5 дней

12 обезьян / 12 Monkeys (2015) WEB-DLRip (сезон 1, серии 1-13 из 13)

Производство: США
Жанр: фантастика, триллер, драма, детектив, приключения

Режиссер: Денни Гордон, Дэвид Бойд, Джон Бэдхем, Майкл Уэксмэн, Джеффри Райнер
Актеры: Аарон Стэнфорд (Джеймс Коул), Аманда Шулл (доктор Кассандра Рейли), Кирк Асеведо (Рамзе), Ной Бин (Аарон Маркер), Демор Барнс (Уитли), Рамон Де Окампо (Оливер Питерс), Эмили Хэмпшир (Дженнифер Гоинс) и др.

Описание:
Коул - уголовник из постапокалиптического будущего. Его осудили за дерзкое поведение и неподчинение властям. В конце девяностых некий вирус уничтожил почти всю популяцию людей, а те, кому удалось выжить, укрылись под землей. В то время ученые уже изобрели технологию путешествия во времени, и Коул стал «морской свинкой», на которой эту технологию решили испытать. Он должен добыть для изучения образцы вируса из прошлого и за это получит полное прощение за все содеянное.


Дата мировой премьеры: 16 января 2015

Продолжительность: ~00:47:00 серия
Качество видео: WEB-DLRip
Перевод: Многоголосый закадровый, профессиональный - LostFilm

Видеокодек: XviD
Формат: AVI
Битрейт видео: ~1280 kb/s
Размер кадра: 720х400 (16:9)
Аудио Rus: (MPEG Layer 3, 48,0 kHz, 2 ch, 192 kb/s) - многоголосый закадровый
Общее
Полное имя : D:\12 обезьян (сезон 1) 12 Monkeys (2015) WEB-DLRip - LostFilm\12.Monkeys.S01E01.rus.LostFilm.TV.avi
Формат : AVI
Формат/Информация : Audio Video Interleave
Размер файла : 501 Мбайт
Продолжительность : 47 м.
Режим общего битрейта : Переменный
Общий поток : 1481 Кбит/сек
Программа кодирования : Nandub v1.0rc2
Библиотека кодирования : Nandub build 1853/release

Видео
Идентификатор : 0
Формат : MPEG-4 Visual
Профиль формата : Advanced Simple@L5
Параметр BVOP формата : Нет
Параметр QPel формата : Нет
Параметр GMC формата : Без точки перехода
Параметр матрицы формата : Default (H.263)
Идентификатор кодека : XVID
Идентификатор кодека/Подсказка : XviD
Продолжительность : 47 м.
Битрейт : 1279 Кбит/сек
Ширина : 720 пикселей
Высота : 400 пикселей
Соотношение сторон : 16:9
Частота кадров : 23,976 кадра/сек
Цветовое пространство : YUV
Субдискретизация насыщенности : 4:2:0
Битовая глубина : 8 бит
Тип развёртки : Прогрессивная
Метод сжатия : С потерями
Бит/(Пиксели*Кадры) : 0.185
Размер потока : 433 Мбайт (86%)
Библиотека кодирования : XviD 1.2.1 (UTC 2008-12-04)

Аудио
Идентификатор : 1
Формат : MPEG Audio
Версия формата : Version 1
Профиль формата : Layer 3
Режим : Joint stereo
Расширение режима : MS Stereo
Идентификатор кодека : 55
Идентификатор кодека/Подсказка : MP3
Продолжительность : 47 м.
Вид битрейта : Переменный
Битрейт : 192 Кбит/сек
Каналы : 2 канала
Частота : 48,0 КГц
Метод сжатия : С потерями
Размер потока : 63,9 Мбайт (13%)
Выравнивание : Соединение по промежуткам
Продолжительность промежутка : 24 мс. (0,58 видеокадр)
Время предзагрузки промежутка : 471 мс.
Библиотека кодирования : LAME3.97b
Настройки программы : -m j -V 4 -q 3 -lowpass 18.6 --abr 192
01. Splinter / Расщеплённый
02. Mentally Divergent / Девушка с психическими отклонениями
03. Cassandra Complex / Комплекс Кассандры
04. Atari / Атари
05. The Night Room / Ночная комната
06. The Red Forest / Красный лес
07. The Keys / Острова
08. Yesterday / Вчера
09. Tomorrow / Завтра
10. Divine Move / Божественный ход
11. Shonin / Сёнин
12. Paradox / Парадокс
13. Arms of Mine / В моих руках

Скриншоты:




Время раздачи: 24/7 - круглосуточно (по возможности)
Не забывайте говорить Спасибо. Не уходите с раздачи!   
Торрент: Зарегистрирован [20 янв 2018, 04:49]
Статус:
Проверен
 
.torrent скачан: 1 раз
Хэш: ce2d0ee35c9c118e8a9e9618ebbd3b2dafaf4b5a
Размер: 5.42 ГБ (5 824 229 376 байт)
   Стать Автором раздачи
   
Цитата
  • Похожие торренты
    Ответы
    Просмотры
    Последнее сообщение

Вернуться в 12 обезьян / 12 Monkeys

Кто сейчас на конференции

Сейчас эту тему просматривают: нет зарегистрированных пользователей и гости: 1