Банши / Banshee (2015) HDTVRip (сезон 3, серии 1-10 из 10) NewStudio

 Статистика раздачи 
Размер: 6.25 ГБ   |  Зарегистрирован: 20 янв 2018, 04:38   |   .torrent скачан: 1 раз
Сидеров: 0  [ 0 байт/сек ]     Личеров: 0  [ 0 байт/сек ]  
  
Аватара пользователя
 
Раздал: 2.05 ГБ
Скачал: 15.48 ГБ
Ратио: 0.133
Сообщения: 30323
Стаж: 8 лет 4 месяца 6 дней

Банши / Banshee (2015) HDTVRip (сезон 3, серии 1-10 из 10)

«Small Town. Big Secrets»
Производство: США
Жанр: драма, криминал

Перевод: Многоголосый закадровый, профессиональный - NewStudio

Перевод: weirdie
Постер: Vortex

Сэмпл

Режиссер: Мигель Сапочник
Актеры: Энтони Старр, Ивана Миличевич, Рас Блэквелл, Мэтт Сервитто, Триесте Келли Данн, Райанн Шэйн, Фрэнки Фэйзон, Деметриус Гросс, Мэттью Ройч, Хун Ли и др.

Описание фильма:
Главный герой Banshee — бывший заключенный и профессиональный вор, который присваивает себе личность шерифа Банши (городка в Пенсильвании), где он продолжает нарушать закон, хотя ему не дают покоя гангстеры, которых он предал много лет назад.

Продолжительность: ~00:50:00 серия
Качество видео: HDTVRip

Видеокодек: XviD
Формат: AVI
Битрейт видео: ~1670 kb/s
Размер кадра: 720x400 (16:9)
Аудио Rus: (MPEG Layer 3, 48,0 kHz, 2 ch, 128 kb/s) - многоголосый закадровый
Аудио Eng: (MPEG Layer 3, 48,0 kHz, 2 ch, 128 kb/s) - оригинал

Внимание! В сериале присутствует ненормативная лексика. Возрастное ограничение: 18+.
.Общее
Полное имя : D:\Банши (сезон 3) Banshee (2015) HDTVRip - NewStudio\Banshee.s03e01.HDTVRip.NewStudio.TV.avi
Формат : AVI
Формат/Информация : Audio Video Interleave
Размер файла : 700 Мбайт
Продолжительность : 50 м.
Общий поток : 1939 Кбит/сек
Программа кодирования : VirtualDubMod 1.5.10.2 (build 2540/release)
Библиотека кодирования : VirtualDubMod build 2540/release

Видео
Идентификатор : 0
Формат : MPEG-4 Visual
Профиль формата : Advanced Simple@L5
Параметр BVOP формата : 2
Параметр QPel формата : Нет
Параметр GMC формата : Без точки перехода
Параметр матрицы формата : Default (MPEG)
Идентификатор кодека : XVID
Идентификатор кодека/Подсказка : XviD
Продолжительность : 50 м.
Битрейт : 1669 Кбит/сек
Ширина : 720 пикселей
Высота : 400 пикселей
Соотношение сторон : 16:9
Частота кадров : 23,976 кадра/сек
Цветовое пространство : YUV
Субдискретизация насыщенности : 4:2:0
Битовая глубина : 8 бит
Тип развёртки : Прогрессивная
Метод сжатия : С потерями
Бит/(Пиксели*Кадры) : 0.242
Размер потока : 603 Мбайт (86%)
Библиотека кодирования : XviD 64

Аудио #1
Идентификатор : 1
Формат : MPEG Audio
Версия формата : Version 1
Профиль формата : Layer 3
Режим : Joint stereo
Идентификатор кодека : 55
Идентификатор кодека/Подсказка : MP3
Продолжительность : 50 м.
Вид битрейта : Постоянный
Битрейт : 128 Кбит/сек
Каналы : 2 канала
Частота : 48,0 КГц
Метод сжатия : С потерями
Размер потока : 46,2 Мбайт (7%)
Выравнивание : Соединение по промежуткам
Продолжительность промежутка : 42 мс. (1,00 видеокадр)
Время предзагрузки промежутка : 504 мс.
Библиотека кодирования : LAME3.99r
Настройки программы : -m j -V 4 -q 2 -lowpass 17 -b 128

Аудио #2
Идентификатор : 2
Формат : MPEG Audio
Версия формата : Version 1
Профиль формата : Layer 3
Режим : Joint stereo
Идентификатор кодека : 55
Идентификатор кодека/Подсказка : MP3
Продолжительность : 50 м.
Вид битрейта : Постоянный
Битрейт : 128 Кбит/сек
Каналы : 2 канала
Частота : 48,0 КГц
Метод сжатия : С потерями
Размер потока : 46,2 Мбайт (7%)
Выравнивание : Соединение по промежуткам
Продолжительность промежутка : 42 мс. (1,00 видеокадр)
Время предзагрузки промежутка : 504 мс.
Библиотека кодирования : LAME3.99r
Настройки программы : -m j -V 4 -q 2 -lowpass 17 -b 128
01. The Fire Trials / Испытания огнём
02. Snakes and Whatnot / Змеи и прочее
03. A Fixer of Sorts
04. Real Life Is the Nightmare / Жизнь и есть кошмарный сон
05. Tribal / Племя
06. We Were All Someone Else Yesterday / Вчера мы все были другими
07. You Can't Hide From the Dead / От мёртвых не спрятаться
08. All the Wisdom I Got Left / Вся мудрость, что у меня осталась
09. Even God Doesn't Know What to Make of You / Даже господь не знает, как к тебе отнестись
10. We All Pay Eventually / Все мы рано или поздно заплатим
Скриншоты:




Время раздачи: 24/7 - круглосуточно (по возможности)
Не забывайте говорить Спасибо. Не уходите с раздачи!   
Торрент: Зарегистрирован [20 янв 2018, 04:38]
Статус:
Проверен
 
.torrent скачан: 1 раз
Хэш: 618fdb9562d255bbbc0ce825e8cce75788b6cfb8
Размер: 6.25 ГБ (6 711 076 864 байт)
   Стать Автором раздачи
   
Цитата
  • Похожие торренты
    Ответы
    Просмотры
    Последнее сообщение

Вернуться в Банши / Banshee

Кто сейчас на конференции

Сейчас эту тему просматривают: нет зарегистрированных пользователей и гости: 1