Форс-мажоры / Костюмы в законе / Suits (2014) WEB-DLRip (сезон 4, серии 1-16 из 16) NewStudio

 Статистика раздачи 
Размер: 8.59 ГБ   |  Зарегистрирован: 20 янв 2018, 04:36   |   .torrent скачан: 0 раз
Сидеров: 0  [ 0 байт/сек ]     Личеров: 0  [ 0 байт/сек ]  
  
Аватара пользователя
 
Раздал: 2.05 ГБ
Скачал: 15.48 ГБ
Ратио: 0.133
Сообщения: 30323
Стаж: 8 лет 4 месяца 27 дней

Форс-мажоры / Костюмы в законе / Suits (2014) WEB-DLRip (сезон 4, серии 1-16 из 16)

«Two Lawyers. One Degree»
Производство: США
Жанр: драма, комедия

Перевод: Двухголосый закадровый, профессиональный - NewStudio

Автор перевоад: Ptyza

Сэмпл

Режиссер: Кевин Брэй, Джон Скотт
Актеры: Патрик Дж. Адамс, Гэбриел Махт, Меган Маркл, Джина Торрес, Рик Хоффман и др.

Описание фильма:
В центре сюжета замечательный, но немотивированный молодой человек, так и не закончивший учебу в колледже. У него есть все необходимые качества, чтобы стать хорошим адвокатом, кроме диплома. Но благодаря знаниям законов улицы и напористым, не всегда честным действиям его нанимает влиятельная юридическая фирма из Манхэттена.

Продолжительность: ~00:43:00 серия
Качество видео: WEB-DLRip

Видеокодек: XviD
Формат: AVI
Битрейт видео: ~1500 kb/s
Размер кадра: 720x400 (16:9)
Аудио Rus: (MPEG Layer 3, 48,0 KHz, 2 ch, 128 kb/s) — двухголосый закадровый
Аудио Eng: (MPEG Layer 3, 48,0 KHz, 2 ch, 128 kb/s) — оригинал
Общее
Полное имя : D:\Форс-мажоры (Сезон 4) Suits (2014) WEB-DLRip - NewStudio\Suits.s04e01.WEBDLRip.NewStudio.TV.avi
Формат : AVI
Формат/Информация : Audio Video Interleave
Размер файла : 550 Мбайт
Продолжительность : 43 м.
Общий поток : 1776 Кбит/сек
Программа кодирования : VirtualDubMod 1.5.10.2 (build 2540/release)
Библиотека кодирования : VirtualDubMod build 2540/release

Видео
Идентификатор : 0
Формат : MPEG-4 Visual
Профиль формата : Advanced Simple@L5
Параметр BVOP формата : 2
Параметр QPel формата : Нет
Параметр GMC формата : Без точки перехода
Параметр матрицы формата : Default (MPEG)
Идентификатор кодека : XVID
Идентификатор кодека/Подсказка : XviD
Продолжительность : 43 м.
Битрейт : 1506 Кбит/сек
Ширина : 720 пикселей
Высота : 400 пикселей
Соотношение сторон : 16:9
Частота кадров : 23,976 кадра/сек
Цветовое пространство : YUV
Субдискретизация насыщенности : 4:2:0
Битовая глубина : 8 бит
Тип развёртки : Прогрессивная
Метод сжатия : С потерями
Бит/(Пиксели*Кадры) : 0.218
Размер потока : 466 Мбайт (85%)
Библиотека кодирования : XviD 64

Аудио #1
Идентификатор : 1
Формат : MPEG Audio
Версия формата : Version 1
Профиль формата : Layer 3
Режим : Joint stereo
Расширение режима : MS Stereo
Идентификатор кодека : 55
Идентификатор кодека/Подсказка : MP3
Продолжительность : 43 м.
Вид битрейта : Постоянный
Битрейт : 128 Кбит/сек
Каналы : 2 канала
Частота : 48,0 КГц
Метод сжатия : С потерями
Размер потока : 39,6 Мбайт (7%)
Выравнивание : Соединение по промежуткам
Продолжительность промежутка : 42 мс. (1,00 видеокадр)
Время предзагрузки промежутка : 504 мс.

Аудио #2
Идентификатор : 2
Формат : MPEG Audio
Версия формата : Version 1
Профиль формата : Layer 3
Режим : Joint stereo
Расширение режима : MS Stereo
Идентификатор кодека : 55
Идентификатор кодека/Подсказка : MP3
Продолжительность : 43 м.
Вид битрейта : Постоянный
Битрейт : 128 Кбит/сек
Каналы : 2 канала
Частота : 48,0 КГц
Метод сжатия : С потерями
Размер потока : 39,6 Мбайт (7%)
Выравнивание : Соединение по промежуткам
Продолжительность промежутка : 42 мс. (1,00 видеокадр)
Время предзагрузки промежутка : 504 мс.
Библиотека кодирования : LAME3.99r
Настройки программы : -m j -V 4 -q 2 -lowpass 17 -b 128
01. One-Two-Three Go... / Раз,два, три, погнали
02. Breakfast, Lunch and Dinner / Завтрак, обед и ужин
03. Two in the Knees / Два выстрела по коленям
04. Leveraged / В долгу
05. Pound of Flesh / Фунт плоти
06. Litt the Hell Up / В стиле Литта
07. We're Done / Все кончено
08. Exposure / Обнародование
09. Gone
10. This Is Rome / Здесь Рим
11. Enough Is Enough
12. Respect
13. Fork in the Road
14. Derailed / Мост в завтра
15. Know When to Fold 'Em
16. Not Just a Pretty Face
Скриншоты:





Время раздачи: 24/7 - круглосуточно (по возможности)
Не забывайте говорить Спасибо. Не уходите с раздачи!   
Торрент: Зарегистрирован [20 янв 2018, 04:36]
Статус:
Проверен
 
.torrent скачан: 0 раз
Хэш: a34212ab4232a2fd54b688eb4af2726c816c9648
Размер: 8.59 ГБ (9 226 678 272 байт)
   Стать Автором раздачи
   
Цитата

Вернуться в Форс-мажоры / Suits

Кто сейчас на конференции

Сейчас эту тему просматривают: нет зарегистрированных пользователей и гости: 1