Американцы / The Americans (2014) WEB-DLRip (Сезон 2, Серия 01-13 (13)) (NewStudio)

 Статистика раздачи 
Размер: 6.98 ГБ   |  Зарегистрирован: 20 янв 2018, 04:36   |   .torrent скачан: 228 раз
Сидеров: 3  [ 0 байт/сек ]     Личеров: 0  [ 0 байт/сек ]  
  
Аватара пользователя
 
Раздал: 2.05 ГБ
Скачал: 15.48 ГБ
Ратио: 0.133
Сообщения: 30323
Стаж: 8 лет 3 месяца 25 дней

Американцы / The Americans (2014) WEB-DLRip (Сезон 2, Серия 01-13 (13)) (NewStudio)

Год выпуска: 2014
Страна: США
Жанр: Боевик, триллер, драма, криминал
Продолжительность: ~00:47:00 серия
Перевод: Многоголосый закадровый, профессиональный (NewStudio)
Режиссер: Адам Аркин, Гэвин О’Коннор, Томас Шламми
Актеры: Мэттью Риз, Кери Рассел, Аннет Махендру, Холли Тейлор, Роман Блат, Пол Джуд Летерски, Марми Косико

Описание:
История о сложном браке двух агентов КГБ, которые под видом американцев заселяются в пригород Вашингтона сразу после того, как президентом избирают Рейгана. Подставной брак Филлипа и Элизабет с каждым днем становится все более настоящим и эмоциональным, несмотря на эскалацию холодной войны и опасные отношения, которые они должны поддерживать с сетью шпионов и информаторов. Напряжение нарастает, когда появляется новый сосед Стэн, агент ФБР, который работает в контрразведке.

Релиз:
Автор перевода: Weirdie

Сэмпл:
Качество: WEBDLRip
Видео: MPEG4, XviD, 720x400 (16:9), 23.976 fps, 1 356 Kbps (0.196 bit/pixel)
Аудио Rus: MP3, 48.0 KHz, 2 ch, 128 Kbps, CBR |NewStudio|
Аудио Eng: MP3, 48.0 KHz, 2 ch, 128 Kbps, CBR |Original|
01.Comrades /Товарищи
02. Cardinal / Кардинал
03. The Walk In / Перебежчик
04. A Little Night Music / Немного вечерней музыки
05. The Deal / Сделка
06. Behind the Red Door / За красной дверью
07. Arpanet / Арпанет
08. New Car / Новая машина
09. Martial Eagle / Боевой орёл
10. Yousaf / Юсуф
11. Stealth / Стелс
12. Operation Chronicle / "Операция "Летопись"
13. Echo / "Эхо"
General
Complete name : F:\Сериал\раздача\The.Americans.s02\The.Americans.s02e01.WEBDLRip.NewStudio.avi
Format : AVI
Format/Info : Audio Video Interleave
File size : 550 MiB
Duration : 47mn 17s
Overall bit rate : 1 626 Kbps
Writing application : VirtualDubMod 1.5.10.2 (build 2540/release)
Writing library : VirtualDubMod build 2540/release

Video
ID : 0
Format : MPEG-4 Visual
Format profile : Advanced Simple@L5
Format settings, BVOP : 2
Format settings, QPel : No
Format settings, GMC : No warppoints
Format settings, Matrix : Default (MPEG)
Codec ID : XVID
Codec ID/Hint : XviD
Duration : 47mn 17s
Bit rate : 1 356 Kbps
Width : 720 pixels
Height : 400 pixels
Display aspect ratio : 16:9
Frame rate : 23.976 fps
Color space : YUV
Chroma subsampling : 4:2:0
Bit depth : 8 bits
Scan type : Progressive
Compression mode : Lossy
Bits/(Pixel*Frame) : 0.196
Stream size : 459 MiB (83%)
Writing library : XviD 64

Audio #1
ID : 1
Format : MPEG Audio
Format version : Version 1
Format profile : Layer 3
Mode : Joint stereo
Mode extension : MS Stereo
Codec ID : 55
Codec ID/Hint : MP3
Duration : 47mn 17s
Bit rate mode : Constant
Bit rate : 128 Kbps
Channel(s) : 2 channels
Sampling rate : 48.0 KHz
Compression mode : Lossy
Stream size : 43.3 MiB (8%)
Alignment : Aligned on interleaves
Interleave, duration : 42 ms (1.00 video frame)
Interleave, preload duration : 504 ms

Audio #2
ID : 2
Format : MPEG Audio
Format version : Version 1
Format profile : Layer 3
Mode : Joint stereo
Mode extension : MS Stereo
Codec ID : 55
Codec ID/Hint : MP3
Duration : 47mn 17s
Bit rate mode : Constant
Bit rate : 128 Kbps
Channel(s) : 2 channels
Sampling rate : 48.0 KHz
Compression mode : Lossy
Stream size : 43.3 MiB (8%)
Alignment : Aligned on interleaves
Interleave, duration : 42 ms (1.00 video frame)
Interleave, preload duration : 504 ms
Writing library : LAME3.99r
Encoding settings : -m j -V 4 -q 2 -lowpass 17 -b 128
Скриншоты:







Время раздачи: с 9.00 до 23.00, до первых пяти скачавших
Не забывайте говорить Спасибо. Не уходите с раздачи!   
Торрент: Зарегистрирован [20 янв 2018, 04:36]
Статус:
Проверен
 
.torrent скачан: 228 раз
Хэш: da7a94821db7f0766de1f5619148fbc951b8bfe0
Размер: 6.98 ГБ (7 496 235 008 байт)
   Стать Автором раздачи
   
Цитата
  • Похожие торренты
    Ответы
    Просмотры
    Последнее сообщение

Вернуться в Американцы / The Americans

Кто сейчас на конференции

Сейчас эту тему просматривают: нет зарегистрированных пользователей и гости: 1