Библиотекари / The Librarians (2014) WEB-DLRip (сезон 1, серия 01-10 из 10) (BaibaKo)

 Статистика раздачи 
Размер: 6.04 ГБ   |  Зарегистрирован: 20 янв 2018, 04:26   |   .torrent скачан: 0 раз
Сидеров: 0  [ 0 байт/сек ]     Личеров: 0  [ 0 байт/сек ]  
  
Аватара пользователя
 
Раздал: 2.05 ГБ
Скачал: 15.48 ГБ
Ратио: 0.133
Сообщения: 30323
Стаж: 8 лет 1 месяц 1 день

Библиотекари / The Librarians (2014) WEB-DLRip (сезон 1, серия 01-10 из 10) (BaibaKo)

Производство: США
Жанр: приключения

Перевод: Многоголосый закадровый, профессиональный - BaibaKo

Автор перевода: Янина Галицкая
Озвучка: Светлана Доманова, Ольга Мотрич, Юлия Котурбаш, Дмитрий Нежельский, Акмал Гурезов и Олекса Мельник
Обложка: tvblog
Рип: qqss44

Режиссер: Дин Девлин, Джонатан Фрейкс
Актеры: Ноа Уайли, Джон Ларрокетт, Ребекка Ромейн, Кристиан Кейн, Джон Ким, Линди Бут, Лесли-Энн Брандт, Джейн Куртин, Боб Ньюхарт, Бен Эндрюс

Описание фильма:
Сериал снят по мотивам серии фильмов «Библиотекарь», повествующей о Флинне Карсене, который узнает, что его миссия заключается в том, чтобы охранять магические артефакты в старинной библиотеке. Он вербует четырёх обычных людей, собирая команду по борьбе с тёмной магией и древними заговорами. Под его руководством они научатся самозащите и боевым приемам, чтобы отправиться на поиски загадочных артефактов и спасти их от злодеев, желающих захватить мир.

СЭМПЛ

Продолжительность: ~00:55:00 серия
Качество видео: WEB-DLRip

Формат: AVI
Видеокодек: XviD
Битрейт видео: ~1417 Kbps
Размер кадра: 720х400 (16:9)
Audio Rus: AC-3, 48.0 KHz, 6 ch, 384 Kbps, CBR
General
Complete name : F:\Сериал\раздача\The.Librarians.s01.XviD.BaibaKo\The.Librarians.s01e01.XviD.BaibaKo.[qqss44].avi
Format : AVI
Format/Info : Audio Video Interleave
File size : 748 MiB
Duration : 57mn 46s
Overall bit rate : 1 810 Kbps
Writing application : VirtualDubMod 1.5.10.3 | www.virtualdub-fr.org || (build 2550/release)
Writing library : VirtualDubMod build 2550/release

Video
ID : 0
Format : MPEG-4 Visual
Format profile : Advanced Simple@L5
Format settings, BVOP : Yes
Format settings, QPel : No
Format settings, GMC : No warppoints
Format settings, Matrix : Default (MPEG)
Codec ID : XVID
Codec ID/Hint : XviD
Duration : 57mn 46s
Bit rate : 1 417 Kbps
Width : 720 pixels
Height : 400 pixels
Display aspect ratio : 16:9
Frame rate : 23.976 fps
Color space : YUV
Chroma subsampling : 4:2:0
Bit depth : 8 bits
Scan type : Progressive
Bits/(Pixel*Frame) : 0.205
Stream size : 585 MiB (78%)
Writing library : XviD 73

Audio
ID : 1
Format : AC-3
Format/Info : Audio Coding 3
Mode extension : CM (complete main)
Codec ID : 2000
Duration : 57mn 46s
Bit rate mode : Constant
Bit rate : 384 Kbps
Channel(s) : 6 channels
Channel positions : Front: L C R, Side: L R, LFE
Sampling rate : 48.0 KHz
Bit depth : 16 bits
Stream size : 159 MiB (21%)
Alignment : Split accross interleaves
Interleave, duration : 42 ms (1.00 video frame)
Interleave, preload duration : 500 ms
Скриншоты:






Время раздачи: с 9.00 до 23.00, до первых пяти скачавших
Не забывайте говорить Спасибо. Не уходите с раздачи!   
Торрент: Зарегистрирован [20 янв 2018, 04:26] Для скачивания .torrent
необходима регистрация
Или скачать с помощью
MediaGet
Статус:
Проверен
 
.torrent скачан: 0 раз
Хэш: 18e1ac12fee68c4f6d59a1ae4a83397664b8cd54
Размер: 6.04 ГБ (6 486 650 880 байт)
   Стать Автором раздачи
   
Цитата
  • Похожие торренты
    Ответы
    Просмотры
    Последнее сообщение

Вернуться в Библиотекари / The Librarians

Кто сейчас на конференции

Сейчас эту тему просматривают: нет зарегистрированных пользователей и гости: 1