Марко Поло / Marco Polo (2014) WEBRip (Сезон 1, серии 01-10 из 10) (AlexFilm)

 Статистика раздачи 
Размер: 6.56 ГБ   |  Зарегистрирован: 20 янв 2018, 04:26   |   .torrent скачан: 0 раз
Сидеров: 4  [ 0 байт/сек ]     Личеров: 0  [ 0 байт/сек ]  
  
Аватара пользователя
 
Раздал: 2.05 ГБ
Скачал: 15.48 ГБ
Ратио: 0.133
Сообщения: 30323
Стаж: 8 лет 6 месяцев 6 дней

Марко Поло / Marco Polo (2014) WEBRip (Сезон 1, серии 01-10 из 10) (AlexFilm)

Год выпуска: 2014
Страна: США, Electus, The Weinstein Company LLC
Жанр: приключения, драма

Перевод: Многоголосый закадровый, профессиональный - AlexFilm

Режиссеры: Хоаким Роннинг, Эспен Сандберг, Дэвид Петрарка, Алик Сахаров
Актеры: Лоренцо Рикельми, Бенедикт Вонг, Жу Жу, Том Ву, Реми Хий, Рик Юн, Пьерфранческо Фавино, Оливия Ченг, Клаудия Ким, Ули Латукефу, Джоан Чэнь, Чин Хань, Амр Вакед, Амарсайхан Балжиннямын, Коррадо Инверницци, Махеш Джаду, Ерден Телемисов...

Описание фильма:
Сюжет сериала основан на приключениях знаменитого исследователя Марко Поло в Китае в 13-м веке.

СЭМПЛ
Дата мировой премьеры: 12 декабря 2014

Продолжительность: ~00:51:00 серия
Качество: WEBRip

Формат: AVI
Видео кодек: XviD
Аудио кодек: MP3
Видео: MPEG4, XviD, 720x352 (2.000), 23.976 fps, 1 408 Kbps (0.232 bit/pixel)
Аудио Rus: MP3, 48.0 KHz, 2 ch, 128 Kbps, CBR
Аудио Eng: MP3, 48.0 KHz, 2 ch, 128 Kbps, CBR

Релиз-группа: AlexFilm
Перевод: Константин Кривоногов
Монтаж и сведение звука: Михаил Шорыгин
Роли озвучивали: Татьяна Манетина, Михаил Суслов, Сергей Пономарёв, Владимир Курдов, Андрей Стакионис
General
Complete name : F:\Сериал\раздача\Marco.Polo.Season.1.(AlexFilm)\Marco.Polo.s01e01.The.Wayfarer.Rus.Eng.AlexFilm.avi
Format : AVI
Format/Info : Audio Video Interleave
File size : 616 MiB
Duration : 51mn 21s
Overall bit rate : 1 678 Kbps
Movie name : Marco Polo 1x01 The Wayfarer @ AlexFilm
Writing application : VirtualDubMod 1.5.10.2 (build 2542/release)

Video
ID : 0
Format : MPEG-4 Visual
Format profile : Advanced Simple@L5
Format settings, BVOP : Yes
Format settings, QPel : No
Format settings, GMC : No warppoints
Format settings, Matrix : Default (MPEG)
Codec ID : XVID
Codec ID/Hint : XviD
Duration : 51mn 21s
Bit rate : 1 408 Kbps
Width : 720 pixels
Height : 352 pixels
Display aspect ratio : 2.000
Frame rate : 23.976 fps
Color space : YUV
Chroma subsampling : 4:2:0
Bit depth : 8 bits
Scan type : Progressive
Bits/(Pixel*Frame) : 0.232
Stream size : 517 MiB (84%)
Writing library : XviD 1.2.1 (UTC 2008-12-04)

Audio #1
ID : 1
Format : MPEG Audio
Format version : Version 1
Format profile : Layer 3
Mode : Joint stereo
Mode extension : MS Stereo
Codec ID : 55
Codec ID/Hint : MP3
Duration : 51mn 21s
Bit rate mode : Constant
Bit rate : 128 Kbps
Channel(s) : 2 channels
Sampling rate : 48.0 KHz
Stream size : 47.0 MiB (8%)
Alignment : Aligned on interleaves
Interleave, duration : 42 ms (1.00 video frame)
Interleave, preload duration : 504 ms
Title : Russian (AlexFilm)

Audio #2
ID : 2
Format : MPEG Audio
Format version : Version 1
Format profile : Layer 3
Mode : Joint stereo
Codec ID : 55
Codec ID/Hint : MP3
Duration : 51mn 21s
Bit rate mode : Constant
Bit rate : 128 Kbps
Channel(s) : 2 channels
Sampling rate : 48.0 KHz
Stream size : 47.0 MiB (8%)
Alignment : Aligned on interleaves
Interleave, duration : 42 ms (1.00 video frame)
Interleave, preload duration : 504 ms
Title : English
Переведено и озвучено при поддержке пользователей AlexFilm: yavor, dizi_g, skofield, nokolos, delicious, ifilin, XelaSH, kostikcherm, IDoktoro
Скриншоты:



Время раздачи: с 9.00 до 23.00, до первых пяти скачавших
Не забывайте говорить Спасибо. Не уходите с раздачи!   
Торрент: Зарегистрирован [20 янв 2018, 04:26]
Статус:
Проверен
 
.torrent скачан: 0 раз
Хэш: ba4da7ca153700a08df2000a2ce449deb47e35f5
Размер: 6.56 ГБ (7 047 225 344 байт)
   Стать Автором раздачи
   
Цитата

Вернуться в Марко Поло / Marco Polo

Кто сейчас на конференции

Сейчас эту тему просматривают: нет зарегистрированных пользователей и гости: 1