Марко Поло / Marco Polo (2014) WEBRip (сезон 1, серии 1-10 из 10) BaibaKo

 Статистика раздачи 
Размер: 7.59 ГБ   |  Зарегистрирован: 20 янв 2018, 04:22   |   .torrent скачан: 0 раз
Сидеров: 3  [ 0 байт/сек ]     Личеров: 0  [ 0 байт/сек ]  
  
Аватара пользователя
 
Раздал: 2.05 ГБ
Скачал: 15.48 ГБ
Ратио: 0.133
Сообщения: 30323
Стаж: 8 лет 6 месяцев 3 дня

Марко Поло / Marco Polo (2014) WEBRip (сезон 1, серии 1-10 из 10)

«Worlds Will Collide»
Страна: США
Год выпуска: 2014
Жанр: приключения

Перевод: Многоголосый закадровый, профессиональный - BaibaKo

Автор перевода: Наталья Черненко
Озвучка: Светлана Доманова, Юлия Котурбаш, Ольга Мотрич, Акмал Гурезов, Олекса Мельник и Дмитрий Нежельский
Обложка: Антон Максимов

Сэмпл
Дата мировой премьеры: 12 декабря 2014

Режиссер: Дэвид Петрарка, Алик Сахаров, Хоаким Роннинг
Актеры: Лоренцо Рикельми, Чин Хань, Махеш Джаду, Шу Ан Он, Ерден Телемисов, Ванесса Вандерстратен, Рик Юн, Николас Бладворт и др.

Описание фильма:
Сюжет сериала основан на приключениях знаменитого исследователя Марко Поло в Китае в 13-м веке.

Продолжительность: ~00:51:00 серия
Качество видео: WEBRip

Видеокодек: XviD
Формат: AVI
Битрейт видео: ~1550 kb/s
Размер кадра: 720х352
Аудио Rus: (MPEG Layer 3, 48,0 kHz, 2 ch, 192 kb/s) - многоголосый закадровый
Аудио Eng: (MPEG Layer 3, 48,0 kHz, 2 ch, 192 kb/s) - оригинал
Общее
Полное имя : D:\Марко Поло (сезон 1) Marco Polo (2014) WEBRip - BaibaKo\Marco.Polo.2014.s01e01.WEBRip.XviD.Rus.Eng.BaibaKo.tv.avi
Формат : AVI
Формат/Информация : Audio Video Interleave
Размер файла : 714 Мбайт
Продолжительность : 51 м.
Общий поток : 1949 Кбит/сек
Программа кодирования : VirtualDubMod 1.5.10.2 (build 2540/release)
Библиотека кодирования : VirtualDubMod build 2540/release

Видео
Идентификатор : 0
Формат : MPEG-4 Visual
Профиль формата : Advanced Simple@L5
Параметр BVOP формата : 2
Параметр QPel формата : Нет
Параметр GMC формата : Без точки перехода
Параметр матрицы формата : Default (H.263)
Идентификатор кодека : XVID
Идентификатор кодека/Подсказка : XviD
Продолжительность : 51 м.
Битрейт : 1551 Кбит/сек
Ширина : 720 пикселей
Высота : 352 пикселя
Соотношение сторон : 2,045
Частота кадров : 23,976 кадра/сек
Цветовое пространство : YUV
Субдискретизация насыщенности : 4:2:0
Битовая глубина : 8 бит
Тип развёртки : Прогрессивная
Метод сжатия : С потерями
Бит/(Пиксели*Кадры) : 0.255
Размер потока : 568 Мбайт (80%)
Библиотека кодирования : XviD 1.2.1 (UTC 2008-12-04)

Аудио #1
Идентификатор : 1
Формат : MPEG Audio
Версия формата : Version 1
Профиль формата : Layer 3
Режим : Joint stereo
Расширение режима : MS Stereo
Идентификатор кодека : 55
Идентификатор кодека/Подсказка : MP3
Продолжительность : 51 м.
Вид битрейта : Постоянный
Битрейт : 192 Кбит/сек
Каналы : 2 канала
Частота : 48,0 КГц
Метод сжатия : С потерями
Размер потока : 70,3 Мбайт (10%)
Выравнивание : Соединение по промежуткам
Продолжительность промежутка : 42 мс. (1,00 видеокадр)
Время предзагрузки промежутка : 504 мс.

Аудио #2
Идентификатор : 2
Формат : MPEG Audio
Версия формата : Version 1
Профиль формата : Layer 3
Режим : Joint stereo
Расширение режима : MS Stereo
Идентификатор кодека : 55
Идентификатор кодека/Подсказка : MP3
Продолжительность : 51 м.
Вид битрейта : Постоянный
Битрейт : 192 Кбит/сек
Каналы : 2 канала
Частота : 48,0 КГц
Метод сжатия : С потерями
Размер потока : 70,3 Мбайт (10%)
Выравнивание : Соединение по промежуткам
Продолжительность промежутка : 42 мс. (1,00 видеокадр)
Время предзагрузки промежутка : 504 мс.
Скриншоты:




Время раздачи: 24/7 - круглосуточно (по возможности)
Не забывайте говорить Спасибо. Не уходите с раздачи!   
Торрент: Зарегистрирован [20 янв 2018, 04:22]
Статус:
Проверен
 
.torrent скачан: 0 раз
Хэш: 7d8c14fd62df5ecea8865c40102295ae561794e6
Размер: 7.59 ГБ (8 150 941 696 байт)
   Стать Автором раздачи
   
Цитата

Вернуться в Марко Поло / Marco Polo

Кто сейчас на конференции

Сейчас эту тему просматривают: нет зарегистрированных пользователей и гости: 1