Банши / Banshee (2014) HDTVRip (720p) (Сезон 2, Серия 1-10 (10)) (Amedia)

 Статистика раздачи 
Размер: 12.99 ГБ   |  Зарегистрирован: 20 янв 2018, 03:39   |   .torrent скачан: 2 раз
Сидеров: 60  [ 0 байт/сек ]     Личеров: 2  [ 0 байт/сек ]  
  
Аватара пользователя
 
Раздал: 2.05 ГБ
Скачал: 15.48 ГБ
Ратио: 0.133
Сообщения: 30323
Стаж: 8 лет 3 месяца 24 дня


Банши / Banshee (2014) HDTVRip (720p) (Сезон 2, Серия 1-10 (10)) (Amedia)

Название: Банши
Оригинальное название: Banshee
Год выпуска: 2014
Жанр: Драма, криминал, детектив
Выпущено: США, Your Face Goes Here Entertainment, Cinemax
Перевод: Многоголосый закадровый, профессиональный (Amedia)
Режиссер: Мигель Сапочник, Грег Яйтанс
В ролях: Триесте Келли Данн, Мэтт Сервитто, Энтони Старр, Рас Блэквелл, Ивана Миличевич, Райанн Шэйн, Фрэнки Фэйзон, Деметриус Гросс, Мэттью Ройч, Хун Ли, Ульрих Томсен, Кристофер Козорт, Дерек Сесил, Стив Култер, Джозеф Майсснер

Описание фильма:
Городок Банши пережил много бед, но настоящие проблемы только начинаются. Кай Проктер приютил племянницу, взорвал строящийся отель и еще не знает, что убил юного мэра Банши. Кэри спасла Лукаса, но семья от нее отвернулась. Ее отец, украинский гангстер, раненный в грудь, скрылся от преследователей и уже готовит план мести. Главный герой потерял много крови, но снова выжил. Он готов приступить к исполнению обязанностей шерифа, но теперь его полномочия ограничены, а ФБР пристально следит за каждым его шагом. А главное - теперь ему всерьез грозит разоблачение.
ВОЗРАСТНОЕ ОГРАНИЧЕНИЕ: 18+


Сэмпл
Озвучка: студия "Пифагор" по заказу Amedia
Продолжительность: ~00:50:00 серия
Качество видео: HDTVRip (720p)
Видео: AVC, 1280x720 (16:9), 23.976 fps, 2 906 Kbps (0.132 bit/pixel)
Аудио #1 (рус): AC-3, 48.0 KHz, 2 ch, 192 Kbps, CBR
Аудио #2 (анг): AC-3, 48.0 KHz, 6 ch, 384 Kbps, CBR

Скриншоты:


01: Little Fish / Маленькая рыбка.
02. The Thunder Man / Человек-гром.
03. The Warrior Class / Класс воина.
04. Bloodlines / Род.
05. The Truth About Unicorns / Правда о единорогах
06. Armies of One / Армии одного
07. Ways to Bury a Man / Способы похоронить человека
08. Evil for Evil / Злом за зло
09. Homecoming / Возвращение на родину
10. Bullets and Tears / Пули и слезы
Уникальный идентификатор : 248452885404934752192012030534049054054 (0xBAEA49015D6D1E1F8B8D94BF4373BD66)
Полное имя : D:\Banshee.S02\Banshee.S02E01.HDTV.720p.SCTeam.mkv
Формат : Matroska
Версия формата : Version 2
Размер файла : 1,23 Гбайт
Продолжительность : 49 м.
Общий поток : 3553 Кбит/сек
Дата кодирования : UTC 2014-01-11 17:54:40
Программа кодирования : mkvmerge v2.9.9 ('Tutu') built on Nov 25 2009 21:13:32
Библиотека кодирования : libebml v0.7.9 + libmatroska v0.8.1

Видео
Идентификатор : 1
Формат : AVC
Формат/Информация : Advanced Video Codec
Профиль формата : High@L4.1
Параметр CABAC формата : Да
Параметр ReFrames формата : 5 кадров
Идентификатор кодека : V_MPEG4/ISO/AVC
Продолжительность : 49 м.
Битрейт : 2906 Кбит/сек
Ширина : 1280 пикселей
Высота : 720 пикселей
Соотношение сторон : 16:9
Режим частоты кадров : Постоянный
Частота кадров : 23,976 кадра/сек
Цветовое пространство : YUV
Субдискретизация насыщенности : 4:2:0
Битовая глубина : 8 бит
Тип развёртки : Прогрессивная
Бит/(Пиксели*Кадры) : 0.132
Размер потока : 1,01 Гбайт (82%)
Библиотека кодирования : x264 core 140 r2377 1ca7bb9
Настройки программы : cabac=1 / ref=5 / deblock=1:0:0 / analyse=0x3:0x113 / me=umh / subme=8 / psy=1 / psy_rd=1.00:0.00 / mixed_ref=1 / me_range=16 / chroma_me=1 / trellis=1 / 8x8dct=1 / cqm=0 / deadzone=21,11 / fast_pskip=1 / chroma_qp_offset=-2 / threads=18 / lookahead_threads=3 / sliced_threads=0 / nr=0 / decimate=1 / interlaced=0 / bluray_compat=0 / constrained_intra=0 / bframes=3 / b_pyramid=2 / b_adapt=2 / b_bias=0 / direct=3 / weightb=1 / open_gop=0 / weightp=2 / keyint=250 / keyint_min=23 / scenecut=40 / intra_refresh=0 / rc_lookahead=50 / rc=crf / mbtree=1 / crf=18.0 / qcomp=0.60 / qpmin=0 / qpmax=69 / qpstep=4 / ip_ratio=1.40 / aq=1:1.00
Язык : English
Default : Нет
Forced : Нет
Коэффициенты матрицы : BT.709

Аудио #1
Идентификатор : 2
Формат : AC-3
Формат/Информация : Audio Coding 3
Расширение режима : CM (complete main)
Параметр Endianness формата : Big
Идентификатор кодека : A_AC3
Продолжительность : 49 м.
Вид битрейта : Постоянный
Битрейт : 192 Кбит/сек
Каналы : 2 канала
Расположение каналов : Front: L R
Частота : 48,0 КГц
Битовая глубина : 16 бит
Метод сжатия : С потерями
Размер потока : 68,2 Мбайт (5%)
Default : Да
Forced : Да

Аудио #2
Идентификатор : 3
Формат : AC-3
Формат/Информация : Audio Coding 3
Расширение режима : CM (complete main)
Параметр Endianness формата : Big
Идентификатор кодека : A_AC3
Продолжительность : 49 м.
Вид битрейта : Постоянный
Битрейт : 384 Кбит/сек
Каналы : 6 каналов
Расположение каналов : Front: L C R, Side: L R, LFE
Частота : 48,0 КГц
Битовая глубина : 16 бит
Метод сжатия : С потерями
Размер потока : 136 Мбайт (11%)
Default : Нет
Forced : Нет
Внимание! Раздача ведётся путём добавления новых серий; при каждом добавлении создаётся новый торрент.
Чтобы начать докачку новой серии, пользователям необходимо сделать следующее:
1. Остановить скачивание;
2. Удалить старый торрент у себя из клиента (старые серии удалять не надо);
3. Скачать новый торрент и запустить его у себя в клиенте вместо старого, при этом указать клиенту путь в старую папку куда и должно происходить скачивание новых серий. Ваш клиент при этом должен произвести хеширование (проверку) старой папки и будет докачивать только те серии, которых у вас ещё нет. Старые серии при этом не удаляются, а продолжают раздаваться! Eсли вы уже удалили старые серии, то предотвратить повторную закачку старых серий можно, отжав галочку в соответствующих местах при запуске нового торрента.


Время раздачи: 9:00 до 23:00, до первых пяти скачавших
Не забывайте говорить Спасибо. Не уходите с раздачи!   
Торрент: Зарегистрирован [20 янв 2018, 03:39]
Статус:
Проверен
 
.torrent скачан: 2 раз
Хэш: d5a2bc0f48c3f1923ea7326f58d40788f3fe3f13
Размер: 12.99 ГБ (13 948 912 181 байт)
   Стать Автором раздачи
   
Цитата
  • Похожие торренты
    Ответы
    Просмотры
    Последнее сообщение

Вернуться в Банши / Banshee

Кто сейчас на конференции

Сейчас эту тему просматривают: нет зарегистрированных пользователей и гости: 1