В пустыне смерти / Into the Badlands [S02] (2017) WEB-DLRip 720p | OmskBird

 Статистика раздачи 
Размер: 9.5 ГБ   |  Зарегистрирован: 10 июн 2018, 23:48   |   .torrent скачан: 0 раз
Сидеров: 5  [ 0 байт/сек ]     Личеров: 3  [ 0 байт/сек ]  
  
Аватара пользователя
Главный редактор
Главный редактор
Я на сайте
 
Раздал: 86.65 ТБ
Скачал: 3.77 ТБ
Ратио: 23.413
Сообщения: 218252
Стаж: 8 лет 9 месяцев 28 дней
Откуда: Санкт-Петербург

Информация о фильме
Название: В пустыне смерти
Оригинальное название: Into the Badlands
Год выхода: 2017
Жанр: Боевик, драма, приключения, экранизация
Режиссер: Дэвид Добкин / David Dobkin
В ролях: Эмили Бичем, Сара Болгер, Орла Брэйди, Мартон Чокаш, Элли Иоаннидес, Арамис Найт, Мадлен Манток, Майкл Сил, Оливер Старк, Дэниэл Ву и др.

О фильме:
Приключенческий боевик о двух друзьях. В пустыне смерти, какие испытания предстоит пройти главным героям на пути просвещения. Ради обретения высшей мудрости мастер боевых искусств Санни и его юный напарник решают пройти через неизведанные земли. Они знают, что там их будут встречать враждебно, но ради высшей цели главные герои готовы вынести всё. В основу сюжета сериала был положен китайский роман под названием «Путешествие на Запад». Во время путешествия Санни покажет в полной мере своё мастерство, а его юный друг сможет многому научиться, и владению собственным телом, и контролю над собственным духом.


Страна: США
Продолжительность: ~ 00:45:00 серия
Перевод: Любительский (многоголосый закадровый) | OmskBird

Файл
Кодек: MPEG-4 AVC/H.264
Качество: WEB-DLRip 720p
Видео: 1280x720 (16:9), 23,976 fps, ~3000 kbps, 0.134 bit/pixel
Звук:
Аудио rus: AC-3, 48 KHz, 2 ch, 192 kbps
Реклама: присутствует
Семпл

Релиз-группа:
Перевод: Татьяна Масаковская
Роли озвучивали: Павел Ярощик, Алексей Гнеушев, Наталья Ланц
Звукорежиссер: Павел Квентов
Постер: Ксения Просветова

General
Complete name : G:FilmsInto.the.Badlands.S02.720p.WEB-DLRip.OmskBirdInto.the.Badlands.S02E01.720p.WEB-DLRip.OmskBird.mp4
Format : MPEG-4
Format profile : Base Media / Version 2
Codec ID : mp42 (mp42/mp41)
File size : 982 MiB
Duration : 43mn 36s
Overall bit rate mode : Variable
Overall bit rate : 3 147 Kbps
Encoded date : UTC 2017-03-20 17:23:25
Tagged date : UTC 2017-03-20 17:23:35
©TIM : 00:00:00:00
©TSC : 24000
©TSZ : 1001

Video
ID : 1
Format : AVC
Format/Info : Advanced Video Codec
Format profile : Main@L3.2
Format settings, CABAC : Yes
Format settings, ReFrames : 3 frames
Codec ID : avc1
Codec ID/Info : Advanced Video Coding
Duration : 43mn 36s
Bit rate : 2 954 Kbps
Width : 1 280 pixels
Height : 720 pixels
Display aspect ratio : 16:9
Frame rate mode : Constant
Frame rate : 23.976 (24000/1001) fps
Standard : PAL
Color space : YUV
Chroma subsampling : 4:2:0
Bit depth : 8 bits
Scan type : Progressive
Bits/(Pixel*Frame) : 0.134
Stream size : 921 MiB (94%)
Language : English
Encoded date : UTC 2017-03-20 17:23:25
Tagged date : UTC 2017-03-20 17:23:25
Color range : Limited
Color primaries : BT.709
Transfer characteristics : BT.709
Matrix coefficients : BT.709

Audio
ID : 2
Format : AAC
Format/Info : Advanced Audio Codec
Format profile : LC
Codec ID : 40
Duration : 43mn 36s
Source duration : 43mn 36s
Bit rate mode : Variable
Bit rate : 192 Kbps
Maximum bit rate : 300 Kbps
Channel(s) : 2 channels
Channel positions : Front: L R
Sampling rate : 48.0 KHz
Frame rate : 46.875 fps (1024 spf)
Compression mode : Lossy
Stream size : 59.1 MiB (6%)
Source stream size : 59.1 MiB (6%)
Language : English
Encoded date : UTC 2017-03-20 17:23:25
Tagged date : UTC 2017-03-20 17:23:25



Релиз от: skyns61
Не забывайте говорить Спасибо. Не уходите с раздачи!   
Торрент: Зарегистрирован [10 июн 2018, 23:48]
Статус:
Проверен
 
.torrent скачан: 0 раз
Хэш: 2273a4ead0b2d8309f7444ac37b5d4ab4b0781d1
Размер: 9.5 ГБ (10 199 637 483 байт)
   Стать Автором раздачи
   
Цитата

Вернуться в В пустыне смерти / Into the Badlands

Кто сейчас на конференции

Сейчас эту тему просматривают: нет зарегистрированных пользователей и гости: 1