В пустыне смерти / Into the Badlands [S02] (2017) WEB-DLRip | OmskBird

 Статистика раздачи 
Размер: 6.11 ГБ   |  Зарегистрирован: 10 июн 2018, 23:48   |   .torrent скачан: 0 раз
Сидеров: 2  [ 0 байт/сек ]     Личеров: 3  [ 0 байт/сек ]  
  
Аватара пользователя
Главный редактор
Главный редактор
 
Раздал: 86.58 ТБ
Скачал: 3.77 ТБ
Ратио: 23.396
Сообщения: 218165
Стаж: 8 лет 9 месяцев 27 дней
Откуда: Санкт-Петербург

Информация о фильме
Название: В пустыне смерти
Оригинальное название: Into the Badlands
Год выхода: 2017
Жанр: Боевик, драма, приключения, экранизация
Режиссер: Дэвид Добкин / David Dobkin
В ролях: Эмили Бичем, Сара Болгер, Орла Брэйди, Мартон Чокаш, Элли Иоаннидес, Арамис Найт, Мадлен Манток, Майкл Сил, Оливер Старк, Дэниэл Ву и др.

О фильме:
Приключенческий боевик о двух друзьях. В пустыне смерти, какие испытания предстоит пройти главным героям на пути просвещения. Ради обретения высшей мудрости мастер боевых искусств Санни и его юный напарник решают пройти через неизведанные земли. Они знают, что там их будут встречать враждебно, но ради высшей цели главные герои готовы вынести всё. В основу сюжета сериала был положен китайский роман под названием «Путешествие на Запад». Во время путешествия Санни покажет в полной мере своё мастерство, а его юный друг сможет многому научиться, и владению собственным телом, и контролю над собственным духом.


Страна: США
Продолжительность: ~ 00:45:00 серия
Перевод: Любительский (многоголосый закадровый) | OmskBird

Файл
Кодек: XviD
Качество: WEB-DLRip
Видео: 720x400 (1.80:1), 23.976 fps, ~1901 kbps avg, 0.28 bit/pixel
Звук:
Аудио rus: AC-3, 48 KHz, 2 ch, 192 kbps
Реклама: присутствует

Семпл

Релиз-группа:
Перевод: Татьяна Масаковская
Роли озвучивали: Павел Ярощик, Алексей Гнеушев, Наталья Ланц
Звукорежиссер: Павел Квентов
Постер: Ксения Просветова

General
Complete name : G:FilmsInto.the.Badlands.S02.WEB-DLRip.OmskBirdInto.the.Badlands.S02E01.WEB-DLRip.OmskBird.avi
Format : AVI
Format/Info : Audio Video Interleave
File size : 656 MiB
Duration : 43mn 36s
Overall bit rate : 2 103 Kbps
Writing application : VirtualDubMod 1.5.10.3 (build 2550/release)
Writing library : VirtualDubMod build 2550/release

Video
ID : 0
Format : MPEG-4 Visual
Format profile : Advanced Simple@L5
Format settings, BVOP : 1
Format settings, QPel : No
Format settings, GMC : No warppoints
Format settings, Matrix : Default (MPEG)
Codec ID : XVID
Codec ID/Hint : XviD
Duration : 43mn 36s
Bit rate : 1 901 Kbps
Width : 720 pixels
Height : 400 pixels
Display aspect ratio : 16:9
Frame rate : 23.976 (23976/1000) fps
Color space : YUV
Chroma subsampling : 4:2:0
Bit depth : 8 bits
Scan type : Progressive
Compression mode : Lossy
Bits/(Pixel*Frame) : 0.275
Stream size : 593 MiB (90%)
Writing library : XviD 73

Audio
ID : 1
Format : AC-3
Format/Info : Audio Coding 3
Mode extension : CM (complete main)
Format settings, Endianness : Big
Codec ID : 2000
Duration : 43mn 36s
Bit rate mode : Constant
Bit rate : 192 Kbps
Channel(s) : 2 channels
Channel positions : Front: L R
Sampling rate : 48.0 KHz
Frame rate : 31.250 fps (1536 spf)
Compression mode : Lossy
Stream size : 59.9 MiB (9%)
Alignment : Split accross interleaves
Interleave, duration : 42 ms (1.00 video frame)
Interleave, preload duration : 500 ms




Релиз от: skyns61
Не забывайте говорить Спасибо. Не уходите с раздачи!   
Торрент: Зарегистрирован [10 июн 2018, 23:48]
Статус:
Проверен
 
.torrent скачан: 0 раз
Хэш: 5382de468b0c922e0bc027ddbcd9e156042e7075
Размер: 6.11 ГБ (6 562 164 736 байт)
   Стать Автором раздачи
   
Цитата

Вернуться в В пустыне смерти / Into the Badlands

Кто сейчас на конференции

Сейчас эту тему просматривают: нет зарегистрированных пользователей и гости: 1