Старшая школа Бакалея / Shiritsu Bakaleya Koukou (Такаши Кубота) [2/?][JAP+SUB] [Япония, 2012, школа, TVRip] [RAW]

 Статистика раздачи 
Размер: 921.79 МБ   |  Зарегистрирован: 08 июн 2018, 18:43   |   .torrent скачан: 0 раз
Сидеров: 0  [ 0 байт/сек ]     Личеров: 0  [ 0 байт/сек ]  
  
Аватара пользователя
 
Раздал: 0 байт
Скачал: 0 байт
Ратио: Inf.
Сообщения: 114865
Стаж: 8 лет 3 месяца 8 дней

Старшая школа Бакалея / 私立バカレア高校/ Shiritsu Bakaleya Koukou / Bakaleya Private High School
Страна: Япония
Год выпуска: 2012
Жанр: школа
Продолжительность: 23 минуты серия
Режиссер: Такаши Кубота
В ролях: Johnny's Jr.:
Моримото Шинтаро (Morimoto Shintaro) - Сакураги Татсуя (Sakuragi Tatsuya)
Матсумура Хокуто (Matsumura Hokuto) - Асата Тетсуя (Asata Tetsuya)
Тайга Кёмото (Taiga Kyomoto) - Теракава Майя (Terakawa Maya)
Танака Джюри (Tanaka Juri) - Ногучи Сатоши (Noguchi Satoshi)
Юго Коччи (Yugo Kochi) - Джинбо Макото (Jinbo Makoto)
Льюис Джесси (Lewis Jessie) - Сатонака Ююки (Satonaka Yuuki)
AKB48 (Team 4):
Шимазаки Харука (Shimazaki Haruka) -Шингёджи Фумиэ (Shingyoji Fumie)
Оба Мина (Oba Mina) - Атомия Сайя (Atomiya Saaya)
Кобаяши Марина (Kobayashi Marina)
Нагао Мария (Nagao Maria)
Накамура Марико (Nakamura Mariko)
Шимада Харука (Shimada Haruka)
Такаки Юя (Takaki Yuya (Hey!Say!Jump)) - Татсунами Шохей (Tatsunami Shohei)
Мията Тошия (Miyata Toshiya (Kis-my-ft2))
Камикава Такая (Kamikawa Takaya)
Учи Хироки (Uchi Hiroki)
Китахара Риэ (Kitahara Rie (AKB48))
Митсумуне Каору (Mitsumune Kaoru (AKB48))
Перевод: Русские субтитры
Школа для мальчиков Бакада наполнена драчливыми, развязными, безалаберными янки. Ученицы же женской академии Катталея идеальны во всем - хорошие оценки, уважаемые семьи и идеально-белые пиджачки. Когда школы решают объединить, главарь Бакады, Сакураги Татсуя, резко реагирует на новеньких, и вступает с президентом студенческого совета Катталея, Шингёджи Фумиэ, в противостояние.
Tsuke-kun
Выход: по NTV каждую субботу в 12:40 дня.
Заглавная песня: Kis-My-Ft2 "Shake It Up"
Заключительная песня: Maeda Atsuko "Migikata"
Неотключаемые субтитры: Без хардсаба
Качество видео: TVRip
Формат: MP4 Видео кодек Другой MPEG4 разрешение 1280x720 Кадр/сек 13.1 Битрейт (kbps) 2670
Язык: Японский Аудио кодек AAC Каналов 2 Частота 48.0 Битрейт 128
Format : MPEG-4
Format profile : Base Media
Codec ID : isom
File size : 461 MiB
Duration : 23mn 0s
Overall bit rate : 2 802 Kbps
Encoded date : UTC 2012-04-14 18:47:31
Tagged date : UTC 2012-04-14 18:47:31
Video
ID : 1
Format : AVC
Format/Info : Advanced Video Codec
Format profile : High@L4.1
Format settings, CABAC : Yes
Format settings, ReFrames : 4 frames
Format settings, GOP : M=4, N=32
Codec ID : avc1
Codec ID/Info : Advanced Video Coding
Duration : 22mn 59s
Bit rate mode : Variable
Bit rate : 2 670 Kbps
Maximum bit rate : 13.1 Mbps
Width : 1 280 pixels
Height : 720 pixels
Display aspect ratio : 16:9
Frame rate mode : Constant
Frame rate : 29.970 fps
Color space : YUV
Chroma subsampling : 4:2:0
Bit depth : 8 bits
Scan type : Progressive
Bits/(Pixel*Frame) : 0.097
Stream size : 439 MiB (95%)
Writing library : x264 core 120 r2164 da19765
Encoding settings : cabac=1 / ref=4 / deblock=1:0:0 / analyse=0x3:0x133 / me=umh / subme=9 / psy=1 / psy_rd=1.00:0.06 / mixed_ref=1 / me_range=32 / chroma_me=1 / trellis=2 / 8x8dct=1 / cqm=0 / deadzone=21,11 / fast_pskip=0 / chroma_qp_offset=-3 / threads=12 / sliced_threads=0 / nr=0 / decimate=1 / interlaced=0 / bluray_compat=0 / constrained_intra=0 / bframes=3 / b_pyramid=2 / b_adapt=2 / b_bias=0 / direct=3 / weightb=1 / open_gop=0 / weightp=2 / keyint=360 / keyint_min=35 / scenecut=40 / intra_refresh=0 / rc_lookahead=50 / rc=2pass / mbtree=1 / bitrate=2670 / ratetol=1.0 / qcomp=0.60 / qpmin=10 / qpmax=51 / qpstep=4 / cplxblur=20.0 / qblur=0.5 / vbv_maxrate=14500 / vbv_bufsize=14500 / nal_hrd=none / ip_ratio=1.40 / aq=1:1.00
Encoded date : UTC 2012-04-14 18:47:31
Tagged date : UTC 2012-04-14 18:47:34
Matrix coefficients : BT.709-5, BT.1361, IEC 61966-2-4 709, SMPTE RP177
Audio
ID : 2
Format : AAC
Format/Info : Advanced Audio Codec
Format profile : LC
Codec ID : 40
Duration : 23mn 0s
Bit rate mode : Variable
Bit rate : 128 Kbps
Maximum bit rate : 149 Kbps
Channel(s) : 2 channels
Channel positions : Front: L R
Sampling rate : 48.0 KHz
Compression mode : Lossy
Stream size : 21.0 MiB (5%)
Encoded date : UTC 2012-04-14 18:47:34
Tagged date : UTC 2012-04-14 18:47:34
Перевод: Tsuke-kun
Вычитка: Hikari Aya~
Dialogue: 0,0:11:47.50,0:11:51.09,Default,,0000,0000,0000,,Если школа действительно скатится к чертям, то я всё брошу тогда.
Dialogue: 0,0:11:51.92,0:11:54.18,Default,,0000,0000,0000,,Ты знаешь, мы недавно открыли магазин! Буду там работать.
Dialogue: 0,0:11:55.79,0:11:57.59,Default,,0000,0000,0000,,Несмотря на то, что ты такой безалаберный…
Dialogue: 0,0:11:59.13,0:12:03.48,Default,,0000,0000,0000,,Единственный, кто больше всех думает о Бакада – это ведь ты, да?
Dialogue: 0,0:12:04.52,0:12:09.33,Default,,0000,0000,0000,,Кто знает. Эти ребята не обязаны думать об этом.
Dialogue: 0,0:12:10.04,0:12:12.02,Default,,0000,0000,0000,,Хоть они и полные придурки…
Dialogue: 0,0:12:12.02,0:12:14.02,Default,,0000,0000,0000,,
Dialogue: 0,0:12:19.45,0:12:20.96,Default,,0000,0000,0000,,Иди сюда!
Dialogue: 0,0:12:20.96,0:12:22.96,Default,,0000,0000,0000,,Ты, урод!
Dialogue: 0,0:12:29.21,0:12:30.51,Default,,0000,0000,0000,,Сатоши и Майя тоже…
Dialogue: 0,0:12:32.55,0:12:34.78,Default,,0000,0000,0000,,Я выбил всё дерьмо из них.
Dialogue: 0,0:12:38.15,0:12:40.02,Default,,0000,0000,0000,,Поэтому они мои настоящие друзья.
Dialogue: 0,0:12:40.02,0:12:42.02,Default,,0000,0000,0000,,
Dialogue: 0,0:12:42.57,0:12:43.54,Default,,0000,0000,0000,,Татсуя!
Dialogue: 0,0:12:44.29,0:12:45.72,Default,,0000,0000,0000,,Те парни…
Dialogue: 0,0:12:45.72,0:12:47.02,Default,,0000,0000,0000,,Они взяли именную доску школы!
Dialogue: 0,0:12:51.07,0:12:52.44,Default,,0000,0000,0000,,Эй, вы, уроды!
Dialogue: 0,0:12:58.86,0:12:59.54,Default,,0000,0000,0000,,Добро пожаловать.
Dialogue: 0,0:13:00.33,0:13:02.92,Default,,0000,0000,0000,,Какого чёрта ты взял нашу именную доску?
Dialogue: 0,0:13:03.78,0:13:09.27,Default,,0000,0000,0000,,О, это? Ваша школа исчезнет, так?
Dialogue: 0,0:13:09.27,0:13:11.27,Default,,0000,0000,0000,,
Dialogue: 0,0:13:11.53,0:13:12.61,Default,,0000,0000,0000,,Это конец.
Dialogue: 0,0:13:12.93,0:13:15.30,Default,,0000,0000,0000,,Для таких идиотов, как вы!
Dialogue: 0,0:13:16.56,0:13:19.11,Default,,0000,0000,0000,,Передадите потом мои поучения своим девчатам!
Dialogue: 0,0:13:21.80,0:13:23.56,Default,,0000,0000,0000,,Да ты издеваешься…
Dialogue: 0,0:13:25.78,0:13:27.18,Default,,0000,0000,0000,,Бакада!
Dialogue: 0,0:13:28.01,0:13:30.06,Default,,0000,0000,0000,,Никогда не исчезнет!
Dialogue: 0,0:14:04.73,0:14:06.35,Default,,0000,0000,0000,,Ну-ка, иди сюда!
Dialogue: 0,0:14:59.76,0:15:00.98,Default,,0000,0000,0000,,Тетсуя!
Dialogue: 0,0:15:01.16,0:15:04.71,Default,,0000,0000,0000,,Отпустите меня, уроды!
Dialogue: 0,0:15:06.65,0:15:07.33,Default,,0000,0000,0000,,Тетсуя!
Dialogue: 0,0:15:08.12,0:15:09.33,Default,,0000,0000,0000,,Отпустите!
Dialogue: 0,0:15:09.95,0:15:10.92,Default,,0000,0000,0000,,Тетсуя!
Dialogue: 0,0:15:14.08,0:15:15.55,Default,,0000,0000,0000,,Ты, иди сюда!
Dialogue: 0,0:15:15.55,0:15:17.55,Default,,0000,0000,0000,,
Dialogue: 0,0:15:35.69,0:15:37.41,Default,,0000,0000,0000,,Ну и посмотри сейчас на себя.
Dialogue: 0,0:15:38.60,0:15:40.57,Default,,0000,0000,0000,,Это THE END.
Dialogue: 0,0:15:40.72,0:15:42.22,Default,,0000,0000,0000,,Умри, тварь.
Dialogue: 0,0:15:55.36,0:15:56.22,Default,,0000,0000,0000,,Парни…
Dialogue: 0,0:15:56.22,0:15:58.22,Default,,0000,0000,0000,,
Dialogue: 0,0:15:58.59,0:15:59.35,Default,,0000,0000,0000,,Татсуя!
Dialogue: 0,0:16:00.24,0:16:02.18,Default,,0000,0000,0000,,Если ты дерёшься, зови нас тоже.
Dialogue: 0,0:16:02.18,0:16:04.18,Default,,0000,0000,0000,,Помощь друзьям…
Dialogue: 0,0:16:05.49,0:16:06.18,Default,,0000,0000,0000,,Это Бакада.
Dialogue: 0,0:16:06.63,0:16:07.71,Default,,0000,0000,0000,,Именно так.
Dialogue: 0,0:16:08.86,0:16:10.12,Default,,0000,0000,0000,,Уроды…
Dialogue: 0,0:16:11.01,0:16:12.84,Default,,0000,0000,0000,,Не надо недооценивать друзей!
Пожалуйста, не используйте субтитры в коммерческих целях и не выкладывайте на ресурсы без разрешения владельцев!
Не забывайте говорить Спасибо. Не уходите с раздачи!   
Торрент: Зарегистрирован [08 июн 2018, 18:43] Для скачивания .torrent
необходима регистрация
Или скачать с помощью
MediaGet
Статус:
Проверен
 
.torrent скачан: 0 раз
Хэш: f0a71da3497ee667ee8a9fe9a0023da7dffc322e
Размер: 921.79 МБ (966 571 767 байт)
   Стать Автором раздачи
   
Цитата
  • Похожие торренты
    Ответы
    Просмотры
    Последнее сообщение

Вернуться в Японские сериалы с субтитрами

Кто сейчас на конференции

Сейчас эту тему просматривают: нет зарегистрированных пользователей и гости: 1