Мед и Клевер / Hachimitsu to Kuroba / Honey And Clover (11 серия) [JAP+SUB] [Япония, 2008 г., Романтика, TVRip]

 Статистика раздачи 
Размер: 448.89 МБ   |  Зарегистрирован: 08 июн 2018, 17:52   |   .torrent скачан: 0 раз
Сидеров: 0  [ 0 байт/сек ]     Личеров: 0  [ 0 байт/сек ]  
  
Аватара пользователя
 
Раздал: 0 байт
Скачал: 0 байт
Ратио: Inf.
Сообщения: 114865
Стаж: 8 лет 3 месяца 9 дней

Мед и Клевер / Hachimitsu to Kuroba / Honey And Clover

Год выпуска: 2008
Страна: Япония
Жанр: Романтика
Продолжительность: 11 серий 45+ минут
Перевод: Субтитры
Русские субтитры: есть
Перевод на русский: Miroku
Тайминг, редакция и оформление: akihabara

хардсаб английский есть
В ролях: Narumi Riko в роли Hanamoto Hagumi
Ikuta Toma в роли Takemoto Yuta
Harada Natsuki в роли Yamada Ayumi
Mukai Osamu в роли Mayama Takumi
Narimiya Hiroki в роли Morita Shinobu
Описание: Honey and Clover — история о жизни пяти студентов художественного университета. В сериале отражены несколько лет из их жизни: экзамены и дипломные работы, творчество и самовыражение, любовь и поиск своего «я». Главные герои меняются со временем, взрослеют и продолжают познавать мир.
Сериал снят по одноименной манге Умино Тика.
Так же существует одноименное аниме.
Доп. информация:
General
Complete name : C:\Аниме\Live\Honey And Clover\Honey and Clover ep11.avi
Format : AVI
Format/Info : Audio Video Interleave
File size : 449 MiB
Duration : 46mn 20s
Overall bit rate : 1 354 Kbps
Movie name : Honey and Clover Episode 11 HDTV
Director : Love Song and SARS-Fansubs.com
Subject : Honey and Clover Episode 11 HDTV
Writing application : Nandub v1.0rc2
Writing library : Nandub build 1852/release
Video
Format : MPEG-4 Visual
Format profile : Streaming Video@L1
Format settings, BVOP : Yes
Format settings, QPel : No
Format settings, GMC : No warppoints
Format settings, Matrix : Default
Muxing mode : Packed bitstream
Codec ID : XVID
Codec ID/Hint : XviD
Duration : 46mn 20s
Bit rate : 1 211 Kbps
Width : 704 pixels
Height : 396 pixels
Display aspect ratio : 16/9
Frame rate : 29.970 fps
Resolution : 24 bits
Colorimetry : 4:2:0
Scan type : Progressive
Bits/(Pixel*Frame) : 0.145
Stream size : 401 MiB (89%)
Writing library : XviD 1.1.2 (UTC 2006-11-01)
Audio
Format : MPEG Audio
Format version : Version 1
Format profile : Layer 3
Codec ID : 55
Codec ID/Hint : MP3
Duration : 46mn 20s
Bit rate mode : Variable
Bit rate : 129 Kbps
Nominal bit rate : 128 Kbps
Channel(s) : 2 channels
Sampling rate : 48.0 KHz
Resolution : 16 bits
Stream size : 42.8 MiB (10%)
Alignment : Aligned on interleaves
Interleave, duration : 24 ms (0.72 video frame)
Interleave, preload duration : 136 ms
Writing library : LAME3.90.
Encoding settings : ABR
Качество: HDTVRip
Формат: AVI
Видео кодек: XviD
Аудио кодек: MP3
Видео: XVID; 704x396; 29.97fps; 1211 Кб/сек
Аудио: MPEG Audio Layer 3; 48,0 КГц; 128 Кб/сек


[url=https://fastpic.ru/view/8/2010/0729/02e12bd1178a890c1a9[URL=https://fastpic.ru/view/8/2010/0729/02e12bd1178a890c1a9c44bcf5d5b580.png.html][/url]
http://rutracker.org/forum/viewtopic.php?t=631425
Там равка, у меня хардсаб
В той раздаче отсутствует 11 серия
Не забывайте говорить Спасибо. Не уходите с раздачи!   
Торрент: Зарегистрирован [08 июн 2018, 17:52] Для скачивания .torrent
необходима регистрация
Или скачать с помощью
MediaGet
Статус:
Проверен
 
.torrent скачан: 0 раз
Хэш: c5f67bb5d1d57237a9b43c88011bd5a6b3c19cea
Размер: 448.89 МБ (470 694 873 байт)
   Стать Автором раздачи
   
Цитата
  • Похожие торренты
    Ответы
    Просмотры
    Последнее сообщение

Вернуться в Японские сериалы с субтитрами

Кто сейчас на конференции

Сейчас эту тему просматривают: нет зарегистрированных пользователей и гости: 1