Отомен / Otomen [12 серия] (Tanimura Masaki) [Raw] [JAP+SUB] [Япония, 2009, Романтика, комедия, TVRip]

 Статистика раздачи 
Размер: 371.77 МБ   |  Зарегистрирован: 08 июн 2018, 16:31   |   .torrent скачан: 0 раз
Сидеров: 2  [ 0 байт/сек ]     Личеров: 1  [ 0 байт/сек ]  
  
Аватара пользователя
 
Раздал: 0 байт
Скачал: 0 байт
Ратио: Inf.
Сообщения: 114865
Стаж: 8 лет 3 месяца 9 дней

Отомен / Otomen
Страна: Япония
Год выпуска: 2009
Жанр: Романтика, комедия
Продолжительность: 12 серия
Режисер: Tanimura Masaki
Перевод: Русские субтитры (Внешними файлами)
Хардсаба: Нет
Переводчик: Sambuka
Редактор: koshkamyau, koshkamyau@mail.ru
В ролях:
Okada Masaki as Masamune Asuka
Takatsuki Sara as young Asuka
Kaho as Miyakozuka Ryo
Hinata Nanami as young Ryo
Kimura Ryo as Tonomine Hajime
Seto Koji as Ariake Yamato
Sano Kazuma as Tachibana Juta
Kiritani Mirei as Oharida Miyabi
Ichikawa Tomohiro as Kurokawa Kitora
Takei Emi as Tachibana Kuriko
Yanagihara Kanako as Hanazawa Yumeko
Takada Nobuhiko as Ryo's father
Tsurumi Shingo as Asuka's father
Yamamoto Mirai as Asuka's mother
Описание:
История популярного в школе парня Masamune Асука, лучшего по кендо в стране. Тем не менее, под его крутой внешностью, скрывается сладкоежка и фанатик седзе манги, который в свободное время занимается шитьем и готовкой разных няшек на кухне. Но в школу переведена новая ученица Miyakozuka Рё, которая знает про его секретные способности к домоводству, парню есть чего боятся - девушка есть девушка, и его крутой образ будет разрушен одним её словом, но может, есть способ это предотвратить?
Качество видео: TVRip
Формат: AVI Видео кодек XviD разрешение 704x396 Кадр/сек 29.970 fps Битрейт (kbps) 1 129 Kbps
Язык: Японский Аудио кодек MPEG Audio Layer 3 Каналов 2 channels Частота 48.0 KHz Битрейт 123 Kbps
Format : AVI
Format/Info : Audio Video Interleave
File size : 372 MiB
Duration : 46mn 2s
Overall bit rate : 1 129 Kbps
Writing application : VirtualDubMod 1.5.10.2 (build 2542/release)
Writing library : VirtualDubMod build 2542/release
Video
ID : 0
Format : MPEG-4 Visual
Format settings, BVOP : Yes
Format settings, QPel : No
Format settings, GMC : No warppoints
Format settings, Matrix : Default (H.263)
Muxing mode : Packed bitstream
Codec ID : DX50
Codec ID/Hint : DivX 5
Duration : 46mn 2s
Bit rate : 992 Kbps
Width : 704 pixels
Height : 396 pixels
Display aspect ratio : 16:9
Frame rate : 29.970 fps
Color space : YUV
Chroma subsampling : 4:2:0
Bit depth : 8 bits
Scan type : Progressive
Bits/(Pixel*Frame) : 0.119
Stream size : 327 MiB (88%)
Writing library : DivX 6.8.5 (UTC 2009-08-20)
Audio
ID : 1
Format : MPEG Audio
Format version : Version 1
Format profile : Layer 3
Mode : Joint stereo
Mode extension : MS Stereo
Codec ID : 55
Codec ID/Hint : MP3
Duration : 46mn 2s
Bit rate mode : Variable
Bit rate : 123 Kbps
Channel(s) : 2 channels
Sampling rate : 48.0 KHz
Stream size : 40.4 MiB (11%)
Alignment : Aligned on interleaves
Interleave, duration : 24 ms (0.72 video frame)
Interleave, preload duration : 526 ms
Не забывайте говорить Спасибо. Не уходите с раздачи!   
Торрент: Зарегистрирован [08 июн 2018, 16:31] Для скачивания .torrent
необходима регистрация
Или скачать с помощью
MediaGet
Статус:
Проверен
 
.torrent скачан: 0 раз
Хэш: 8d05d5d0b88cfe9bb0de99bbd959bed8bcf80d63
Размер: 371.77 МБ (389 832 123 байт)
   Стать Автором раздачи
   
Цитата
  • Похожие торренты
    Ответы
    Просмотры
    Последнее сообщение

Вернуться в Японские сериалы с субтитрами

Кто сейчас на конференции

Сейчас эту тему просматривают: нет зарегистрированных пользователей и гости: 1