Школа "Маджиска": Третий сезон / Majisuka Gakuen 3 [12/12] (Сато Шутоши / Sato Shutoshi) [Япония, 2012, комедия, школьные поединки, драма, HDTVRip] [JAP+SUB]

 Статистика раздачи 
Размер: 6.34 ГБ   |  Зарегистрирован: 08 июн 2018, 16:30   |   .torrent скачан: 0 раз
Сидеров: 0  [ 0 байт/сек ]     Личеров: 0  [ 0 байт/сек ]  
  
Аватара пользователя
 
Раздал: 0 байт
Скачал: 0 байт
Ратио: Inf.
Сообщения: 114865
Стаж: 8 лет 3 месяца 8 дней

Школа "Маджиска": Третий сезон / Majisuka Gakuen 3
Страна: Япония
Год выпуска: 2012
Жанр: комедия, школьные поединки, драма
Продолжительность: ~29 мин/серия
Период показа: с 13.07.2012 на Dorama 24 / TV TOKYO
Оригинальная аудиодорожка: японская
Русские субтитры: ass, без хардсаба
Перевод: Kaneko, Nikorai, Kiber
Тайминг и оформление: Kiber
Правка: ANARenA, R@lph
Режисер: Сато Шутоши / Sato Shutoshi
Автор сценария: Акимото Ясуши / Akimoto Yasushi
В ролях: Шимазаки Харука, Оба Мина, Ягами Куми, Шимада Харука, Абэ Мария, Каваэй Рина, Кимото Канон, Кизаки Юриа, Кимура Ясудзи, Догучи Ёрико
Описание: В частную тюрьму для несовершеннолетних под названием «HOPE» (в народе - «Тюрьма Маджиска») таинственным образом попадает Пару (Шимазаки Харука). Её сокамерницами стали девчонки из банды «Хабу».
Пару не может вспомнить часть своего прошлого... Она была шокирована, услышав, за что попала в тюрьму.
А тем временем Дасу (Оба Мина) и Урусэйо (Шимада Харука) ведут между собой войну за звания главаря.
Примечание: Главные роли в дораме исполняют участницы популярных японских айдол-групп - AKB48, SKE48, HKT48.

Качество видео: HDTVRip
Видео: 1280x720 (16:9), 29.970 fps, h264 ~2470 kbps avg, 0.089 bit/pixel
Аудио: 48 kHz, AAC, 2 ch, ~128 Kbps avg
Общее
Полное имя : Majisuka Gakuen 3\120713 Majisuka Gakuen 3 ep01.mp4
Формат : MPEG-4
Профиль формата : Base Media
Идентификатор кодека : isom
Размер файла : 538 Мбайт
Продолжительность : 28 м.
Общий поток : 2603 Кбит/сек
Дата кодирования : UTC 2012-07-13 20:39:18
Дата пометки : UTC 2012-07-13 20:39:18
Видео
Идентификатор : 1
Формат : AVC
Формат/Информация : Advanced Video Codec
Профиль формата : High@L4.1
Параметр CABAC формата : Да
Параметр ReFrames формата : 4 кадра
Идентификатор кодека : avc1
Идентификатор кодека/Информация : Advanced Video Coding
Продолжительность : 28 м.
Вид битрейта : Переменный
Битрейт : 2470 Кбит/сек
Максимальный битрейт : 14,4 Мбит/сек
Ширина : 1280 пикс.
Высота : 720 пикс.
Соотношение сторон : 16:9
Режим частоты кадров : Постоянный
Частота кадров : 29,970 кадр/сек
Цветовое пространство : YUV
Подвыборка цветности : 4:2:0
Битовая глубина : 8 бит
Тип развёртки : Прогрессивная
Бит/(Пиксели*Кадры) : 0.089
Размер потока : 511 Мбайт (95%)
Библиотека кодирования : x264 core 125 r2200 999b753
Настройки программы : cabac=1 / ref=4 / deblock=1:0:0 / analyse=0x3:0x133 / me=umh / subme=9 / psy=1 / psy_rd=1.00:0.06 / mixed_ref=1 / me_range=32 / chroma_me=1 / trellis=2 / 8x8dct=1 / cqm=0 / deadzone=21,11 / fast_pskip=0 / chroma_qp_offset=-3 / threads=12 / lookahead_threads=2 / sliced_threads=0 / nr=0 / decimate=1 / interlaced=0 / bluray_compat=0 / constrained_intra=0 / bframes=3 / b_pyramid=2 / b_adapt=2 / b_bias=0 / direct=3 / weightb=1 / open_gop=0 / weightp=2 / keyint=360 / keyint_min=35 / scenecut=40 / intra_refresh=0 / rc_lookahead=50 / rc=2pass / mbtree=1 / bitrate=2470 / ratetol=1.0 / qcomp=0.60 / qpmin=10 / qpmax=51 / qpstep=4 / cplxblur=20.0 / qblur=0.5 / vbv_maxrate=14500 / vbv_bufsize=14500 / nal_hrd=none / ip_ratio=1.40 / aq=1:1.00
Дата кодирования : UTC 2012-07-13 20:39:18
Дата пометки : UTC 2012-07-13 20:39:22
Коэффициенты матрицы : BT.709-5, BT.1361, IEC 61966-2-4 709, SMPTE RP177
Аудио
Идентификатор : 2
Формат : AAC
Формат/Информация : Advanced Audio Codec
Профиль формата : LC
Идентификатор кодека : 40
Продолжительность : 28 м.
Вид битрейта : Переменный
Битрейт : 128 Кбит/сек
Максимальный битрейт : 148 Кбит/сек
Каналы : 2 канала
Расположение каналов : Front: L R
Частота : 48,0 КГц
Метод сжатия : С потерями
Размер потока : 26,5 Мбайт (5%)
Дата кодирования : UTC 2012-07-13 20:39:22
Дата пометки : UTC 2012-07-13 20:39:22
Dialogue: 0,0:01:04.31,0:01:06.22,Default,,0000,0000,0000,,Эй, ты! Давай нормально отжимайся!
Dialogue: 0,0:01:06.76,0:01:07.83,Default,,0000,0000,0000,,Отжимайся!
Dialogue: 0,0:01:10.56,0:01:12.52,Default,,0000,0000,0000,,Прекрасный вид, не правда ли?
Dialogue: 0,0:01:13.36,0:01:15.21,Default,,0000,0000,0000,,Надеюсь, что тебе здесь понравится.
Dialogue: 0,0:01:17.43,0:01:19.31,Default,,0000,0000,0000,,Возможно, ты отсюда никогда не выйдешь.
Dialogue: 0,0:01:25.15,0:01:26.02,Default,,0000,0000,0000,,Ничего себе.
Dialogue: 0,0:01:35.30,0:01:37.21,Default,,0000,0000,0000,,Больно же, коза!
Dialogue: 0,0:02:10.38,0:02:11.59,Default,,0000,0000,0000,,Стой.
Dialogue: 0,0:02:15.99,0:02:17.58,Default,,0000,0000,0000,,Стой! Туда дальше нельзя…
Dialogue: 0,0:02:18.48,0:02:22.20,Default,,0000,0000,0000,,Эти браслеты заполнены смертельным ядом.
Dialogue: 0,0:02:23.48,0:02:27.60,Default,,0000,0000,0000,,Если перейдешь границу, то сдохнешь на месте.
Dialogue: 0,0:02:28.94,0:02:32.18,Default,,0000,0000,0000,,А ты объясняй по-нормальному!
Dialogue: 0,0:02:33.92,0:02:39.22,Default,,0000,0000,0000,,Слышь, ты, новенькая, запомни это навсегда.
Dialogue: 0,0:02:56.27,0:03:00.81,Default,,0000,0000,0000,,Что это за место? Куда я попала?
Dialogue: 0,0:03:03.01,0:03:05.87,Default,,0000,0000,0000,,Ответь мне, Кейта.
Dialogue: 0,0:03:06.77,0:03:11.20,Default,,0000,0000,0000,,Почему я попала сюда?
Dialogue: 0,0:03:12.84,0:03:15.47,Default,,0000,0000,0000,,Кейта, Кейта.
20.07.2012: Добавлена 1-я серия
23.07.2012: Добавлена 2-я серия
30.07.2012: Добавлена 3-я серия
28.08.2012: Добавлены 4-я, 5-я, 6-я серии
4.09.2012: Добавлена 7-я серия
11.09.2012: Добавлена 8-я серия
17.09.2012: Добавлена 9-я серия
24.09.2012: Добавлена 10-я серия
06.10.2012: Добавлены 11-я и 12-я серии
Не забывайте говорить Спасибо. Не уходите с раздачи!   
Торрент: Зарегистрирован [08 июн 2018, 16:30] Для скачивания .torrent
необходима регистрация
Или скачать с помощью
MediaGet
Статус:
Проверен
 
.torrent скачан: 0 раз
Хэш: d532e734a30179ad238bf2bf36e288d3eb5ddb16
Размер: 6.34 ГБ (6 803 695 141 байт)
   Стать Автором раздачи
   
Цитата

Вернуться в Японские сериалы с субтитрами

Кто сейчас на конференции

Сейчас эту тему просматривают: нет зарегистрированных пользователей и гости: 1