Мед и Клевер / Hachimitsu to Kuroba / Honey And Clover [11/11] [JAP+SUB][RAW] [Япония, 2008, Романтика, HDTVRip]

 Статистика раздачи 
Размер: 15.91 ГБ   |  Зарегистрирован: 08 июн 2018, 16:28   |   .torrent скачан: 0 раз
Сидеров: 0  [ 0 байт/сек ]     Личеров: 0  [ 0 байт/сек ]  
  
Аватара пользователя
 
Раздал: 0 байт
Скачал: 0 байт
Ратио: Inf.
Сообщения: 114865
Стаж: 8 лет 3 месяца 8 дней

Мед и Клевер / Hachimitsu to Kuroba / Honey And Clover
Страна: Япония
Год выпуска: 2008
Жанр: Романтика
Продолжительность: 11 серий 45+ минут
В ролях:
Narumi Riko в роли Hanamoto Hagumi
Ikuta Toma в роли Takemoto Yuta
Harada Natsuki в роли Yamada Ayumi
Mukai Osamu в роли Mayama Takumi
Narimiya Hiroki в роли Morita Shinobu
Перевод: Русские субтитры
Описание
Honey and Clover — история о жизни пяти студентов художественного университета. В сериале отражены несколько лет из их жизни: экзамены и дипломные работы, творчество и самовыражение, любовь и поиск своего «я». Главные герои меняются со временем, взрослеют и продолжают познавать мир.
Сериал снят по одноименной манге Умино Тика.
Так же существует одноименное аниме.
Информация о переводе:
Субтитры взяты с Сабс.ком.уе *вроде так*
Кто узнал свои субтитры отпишитесь, добавлю в информацию.
388
00:26:27,270 --> 00:26:27,930
Учитель...
389
00:26:28,090 --> 00:26:28,750
Ммм?
390
00:26:29,850 --> 00:26:32,360
Вы знакомы с человеком по имени Рика-сан?
391
00:26:35,120 --> 00:26:36,660
Что она за человек?
392
00:26:38,290 --> 00:26:40,590
Раньше она всегда улыбалась.
393
00:26:41,970 --> 00:26:44,890
Как и вы сейчас, она все время маялась дурью.
394
00:26:47,650 --> 00:26:49,350
Когда она выпустилась,
395
00:26:49,720 --> 00:26:52,830
она вышла замуж за человека по имени Харада.
Он слева на фотографии.
396
00:26:53,870 --> 00:26:55,280
Что? Замуж?
397
00:26:55,970 --> 00:26:57,510
У нее есть муж?
398
00:26:58,010 --> 00:26:59,830
Но его больше нет с нами.
399
00:27:01,650 --> 00:27:04,790
Сегодня как раз был бы день рождения Харады.
400
00:27:05,860 --> 00:27:06,800
Если бы он был жив.
401
00:27:08,780 --> 00:27:10,160
Семейная могила Харада
402
00:27:31,890 --> 00:27:32,950
Хватит уже.
403
00:27:37,160 --> 00:27:37,950
Хватит...
404
00:27:39,890 --> 00:27:41,310
Хватит уже за ней ходить.
405
00:27:44,660 --> 00:27:45,920
Даже если ты хочешь,
406
00:27:46,800 --> 00:27:48,650
она не посмотрит в твою сторону.
407
00:27:49,970 --> 00:27:52,390
У тебя нет ни единого шанса выиграть против кого-то,
408
00:27:52,450 --> 00:27:53,960
кто не существует на свете.
409
00:27:57,850 --> 00:27:58,640
Это невозможно!
410
00:27:58,380 --> 00:27:59,550
Я это знаю!
411
00:28:02,280 --> 00:28:04,980
Тебе не обязательно мне это говорить... Я и так знаю.
412
00:28:10,820 --> 00:28:12,140
Но с этим ничего не поделаешь.
413
00:28:14,770 --> 00:28:16,190
Хватит обо мне заботиться.
414
00:28:18,640 --> 00:28:21,650
Хватит испытывать ко мне чувства.
415
00:28:41,270 --> 00:28:42,870
Даже если оно прямо перед тобой,
416
00:28:43,940 --> 00:28:45,980
есть что-то, что ты не можешь получить.
417
00:28:59,040 --> 00:29:00,450
И сколько бы ты не тянул руки,
418
00:29:01,710 --> 00:29:03,970
Есть что-то, до чего ты никогда не сможешь дотянуться.
419
00:29:10,380 --> 00:29:13,040
Даже если ты не можешь получить это,
Общее
Полное имя : E:\Дорамы\Honey and Clover (1280x720 RAW) (Complete Batch)\Honey and Clover ep02 (1280x720 DivX680).avi
Формат : AVI
Формат/Информация : Audio Video Interleave
Размер файла : 1,59 Гбайт
Продолжительность : 46 м.
Общий поток : 4853 Кбит/сек
Библиотека кодирования : VirtualDub build 28191/release
Видео
Идентификатор : 0
Формат : MPEG-4 Visual
Параметр BVOP формата : Нет
Параметр QPel формата : Нет
Параметр GMC формата : Без точки перехода
Параметр матрицы формата : Default (MPEG)
Идентификатор кодека : DX50
Идентификатор кодека/Подсказка : DivX 5
Продолжительность : 46 м.
Битрейт : 4649 Кбит/сек
Ширина : 1280 пикс.
Высота : 720 пикс.
Соотношение сторон : 16:9
Частота кадров : 29,970 кадр/сек
Цветовое пространство : YUV
Подвыборка цветности : 4:2:0
Битовая глубина : 8 бит
Тип развёртки : Прогрессивная
Метод сжатия : С потерями
Бит/(Пиксели*Кадры) : 0.168
Размер потока : 1,52 Гбайт (96%)
Библиотека кодирования : DivX 6.8.0 (UTC 2007-12-04)
Аудио
Идентификатор : 1
Формат : MPEG Audio
Версия формата : Version 1
Профиль формата : Layer 3
Идентификатор кодека : 55
Идентификатор кодека/Подсказка : MP3
Продолжительность : 46 м.
Вид битрейта : Постоянный
Битрейт : 192 Кбит/сек
Канал(ы) : 2 канала(ов)
Частота : 48,0 КГц
Метод сжатия : С потерями
Размер потока : 64,3 Мбайт (4%)
Выравнивание : Разделение по промежуткам
Продолжительность промежутка : 33 мс. (1,00 видеокадр)
Время предзагрузки промежутка : 500 ms
1. От Этой - Отсутствие хардсаба, лучшей картинкой, всеми сериями.
2. От Этой - Всеми сериями, лучшей картинкой
1280х720 против 704x396 в обоих случаях.
Неотключаемые субтитры: Без хардсаба
Качество видео: HDTV
Формат: AVI, Видео кодек DivX, Разрешение 1280х720, Кадр/сек 29,9, Битрейт 4649 Кбит/сек
Язык: Японский, Аудио кодек MP3, 2 канала, Частота 48,0 КГц, Битрейт 192 Кбит/сек
Не забывайте говорить Спасибо. Не уходите с раздачи!   
Торрент: Зарегистрирован [08 июн 2018, 16:28] Для скачивания .torrent
необходима регистрация
Или скачать с помощью
MediaGet
Статус:
Проверен
 
.torrent скачан: 0 раз
Хэш: fa05c34ab8165063a9441076dcaa6fd811854a15
Размер: 15.91 ГБ (17 082 839 703 байт)
   Стать Автором раздачи
   
Цитата
  • Похожие торренты
    Ответы
    Просмотры
    Последнее сообщение

Вернуться в Японские сериалы с субтитрами

Кто сейчас на конференции

Сейчас эту тему просматривают: нет зарегистрированных пользователей и гости: 1