Девушка, которая умерла / Kanojo ga Shinjyatta (Sato Toya, Yoshino Hiroshi, Inomata Ryuichi) (9/9) [JAP+SUB] [Япония, 2004, романтическая мелодрама, детектив, DVDRip] [RAW]

 Статистика раздачи 
Размер: 7.39 ГБ   |  Зарегистрирован: 08 июн 2018, 16:25   |   .torrent скачан: 0 раз
Сидеров: 0  [ 0 байт/сек ]     Личеров: 0  [ 0 байт/сек ]  
  
Аватара пользователя
 
Раздал: 0 байт
Скачал: 0 байт
Ратио: Inf.
Сообщения: 114865
Стаж: 8 лет 3 месяца 15 дней

Девушка, которая умерла / Kanojo ga Shinjyatta / 彼女が死んじゃった
My Life After Her Death

Страна: Япония
Год выпуска: 2004
Жанр: романтическая мелодрама, детектив
Продолжительность: 9 по ~45 мин. (первый эпизод ~57 мин.)
Режиссер: Sato Toya, Yoshino Hiroshi, Inomata Ryuichi
В ролях: Нагасе Томоя / Nagase Tomoya
Фукада Кёко / Fukada Kyoko
Кагава Теруюки / Kagawa Teruyuki
Кимура Ёшино / Kimura Yoshino
Перевод: Русские субтитры (софтсаб, .srt)
перевод с японского: moleva
редакция: bih_cwd

Описание: Живет на небольшом, но продвинутом японском острове молодой человек, по имени Ансай, точнее живет он даже не на острове, а на яхте, подрабатывает танцором там и тут, водит к себе на яхту регулярно девушек на ночь, утром привязывает на настольную елочку зубную щетку в честь еще одной постельной победы. Елочка уже сплошь увешана этими щетками.
Однажды в холле лав отеля он встречает необычную девушку - Юкари. Воспользовавшись удачным моментом, Ансай сбегает с понравившейся девушкой, они проводят вместе одну ночь. Спустя несколько дней к Ансаю заявляются двое, они сообщают, что Юкари неожиданно покончила с собой. Ансай один из последних людей, кто видел ее живой. У них остался лишь ее сотовый с контактами, возможно один из этих людей знает, что произошло с Юкари? Так начинается их путешествие по жизни погибшей девушки... © moleva
Дополнительная информация: В первой серии вы можете увидеть поющего Крейзи Кена (Crazy Ken Band). Это тот самый человек, который в дораме "Тигр и Дракон" пел песню Ore no hanashi o kike. Он также написал песню Transistor G Girl для группы ТОКИО, которая является опенингом к данной дораме.
В качестве небольшого бонуса добавили в раздачу полную запись детской зарядки Tonchi-tonchi, кусочек которой показывают во 2-ом эпизоде.
99
00:13:28,456 --> 00:13:31,067
Эх, глупая я женщина, вошла в твой список...
100
00:13:31,067 --> 00:13:32,583
Да ладно тебе...
101
00:13:32,583 --> 00:13:35,612
Так себе женщина - простая стойеновая щетка, хорошая женщина - элитная щетка.
102
00:13:35,612 --> 00:13:37,895
- Это дискриминация!
- Просто разделение.
103
00:13:39,643 --> 00:13:41,119
Элитная.
104
00:13:43,809 --> 00:13:46,601
Надо же... Это для меня.
105
00:13:49,310 --> 00:13:51,887
Не хило ты развлекаешься.
106
00:13:52,926 --> 00:13:55,090
Ты ведь тоже.
107
00:13:57,427 --> 00:14:00,416
Это ты меня втянул.
108
00:14:05,443 --> 00:14:06,940
А! Смотри, смотри!
109
00:14:08,275 --> 00:14:11,342
- Это он звонит, тот самый.
- Тот самый?
110
00:14:11,970 --> 00:14:12,875
Алло!
111
00:14:12,875 --> 00:14:16,026
Посмотреть бы на твою чертову рожу! Ты чего наделал!
112
00:14:16,599 --> 00:14:19,564
Я проснулся, а тут другая...
113
00:14:19,564 --> 00:14:22,178
Подменил мне женщину! Чего мне с ней теперь делать?
114
00:14:23,445 --> 00:14:26,857
Зовут его... Тамура! Тамура-сан!
115
00:14:26,857 --> 00:14:28,350
Алло, Тамура-сан...
116
00:14:28,350 --> 00:14:33,167
Я нахожусь сейчас справа от Вас...
117
00:14:35,975 --> 00:14:36,823
Да.
118
00:14:37,932 --> 00:14:40,172
Да, справа, справа, поняли меня?
119
00:14:40,172 --> 00:14:43,572
Та сторона, где палочки для еды - это право.
120
00:14:43,572 --> 00:14:45,029
Сейчас ты дождешься у меня, придурок!!!
Видео
Идентификатор : 0
Формат : MPEG-4 Visual
Профиль формата : Advanced Simple@L5
Параметр BVOP формата : 2
Параметр QPel формата : Нет
Параметр GMC формата : Без точки перехода
Параметр матрицы формата : Default (H.263)
Режим смешивания : Сжатый битовый поток
Идентификатор кодека : XVID
Идентификатор кодека/Подсказка : XviD
Продолжительность : 57 м.
Битрейт : 2026 Кбит/сек
Ширина : 720 пикселей
Высота : 540 пикселей
Соотношение сторон : 4:3
Частота кадров : 29,970 кадров/сек
Цветовое пространство : YUV
Субдискретизация насыщенности : 4:2:0
Битовая глубина : 8 бит
Тип развёртки : Прогрессивная
Метод сжатия : С потерями
Бит/(Пиксели*Кадры) : 0.174
Размер потока : 840 Мбайт (84%)
Библиотека кодирования : XviD 1.1.2 (UTC 2006-11-01)
Аудио
Идентификатор : 1
Формат : AC-3
Формат/Информация : Audio Coding 3
Расширение режима : CM (complete main)
Идентификатор кодека : 2000
Продолжительность : 57 м.
Вид битрейта : Постоянный
Битрейт : 384 Кбит/сек
Каналы : 2 канала
Расположение каналов : Front: L R
Частота : 48,0 КГц
Битовая глубина : 16 бит
Метод сжатия : С потерями
Размер потока : 159 Мбайт (16%)
Выравнивание : Разделение по промежуткам
Продолжительность промежутка : 33 мс. (1,00 видеокадр)
Время предзагрузки промежутка : 500 мс.
Общее
Формат : Flash Video
Размер файла : 6,36 Мбайт
Продолжительность : 2 м. 41 с.
Общий поток : 330 Кбит/сек
Программа кодирования : hiei at popgo. m_901047720_id. Tudou@China
Пометившая программа : Tudou.Com
Видео
Формат : Sorenson Spark
Идентификатор кодека : 2
Продолжительность : 2 м. 41 с.
Битрейт : 253 Кбит/сек
Ширина : 320 пикселей
Высота : 240 пикселей
Соотношение сторон : 4:3
Режим частоты кадров : Постоянный
Частота кадров : 15,000 кадров/сек
Битовая глубина : 8 бит
Бит/(Пиксели*Кадры) : 0.220
Размер потока : 5,02 Мбайт (79%)
Аудио
Формат : MPEG Audio
Версия формата : Version 2
Профиль формата : Layer 3
Идентификатор кодека : 2
Идентификатор кодека/Подсказка : MP3
Продолжительность : 2 м. 41 с.
Вид битрейта : Постоянный
Битрейт : 64,0 Кбит/сек
Каналы : 1 канал
Частота : 22,05 КГц
Метод сжатия : С потерями
Размер потока : 1,30 Мбайт (20%)
Библиотека кодирования : LAME3.98 (alpha)

Неотключаемые субтитры: Без хардсаба
Качество видео: DVDRip
Формат: AVI, XviD, 720х540, 29,97 fps, 2026 Kbps
Язык: Японский, AC3, 2 channels, 48.0 KHz, 384 Kbps

Обновление:
01.06.2013 - добавлены 8-я и 9-я серии!
Перевод завершён!

ЗАВЕРШЁННЫЕ
Сериалы
Опасный ангел и Охотник за смертью / DxD: Dangerous Angel & Death Hunter (1997)
Любовь и Эрос / Love and Eros (1998)
Время юности / Ao no Jidai (1998)
Парень, близкий к небу + Спешл / Tengoku ni Ichiban Chikai Otoko + SP (1999)
Влюбленные на песке / Suna no Ue no Koibitotachi (1999)
Любовный комплекс / Love Complex (2000)
Белая тень / Shiroi Kage (2001)
Полудоктор / Handoku!! (2001)
Молодой папа / Yan Papa (2002)
Мой звёздный муж 2003 / Mukodono 2003
Девушка, которая умерла / Kanojo ga Shinjyatta (2004)
Младший брат / Otouto (2004)
Леди Джокер / Lady Joker (2013)
Не плачь, Хара-тян / Nakuna, Hara-chan (2013)
Курокочи / Kurokouchi (2013)
Ханасаки Май молчать не будет! / Hanasaki Mai ga Damattenai (2014)
ТВ-спешлы
Белая лента: Время отправляться в путь / Hakusen Nagashi: Tabidachi no Uta SP3 (2001)
Белая лента: 25 лет / Hakusen Nagashi: 25 Sai SP4 (2003)
Вдвоём / Futari (2003)
Акечи Когоро против Киндаичи Коске / Akechi Kogorou vs Kindaichi Kousuke (2005)
Отрада / Gotaisetsu (2008)
Ямочки на щеках Мипорин / Miporin no Ekubo (2010)
СП: Время революции / SP: Kakumei Hen (2011)
Огненная колесница / Kasha (2011)
Уровень 7 / Level 7 (2012)
Двуличность / Double Face (2012)
Фильмы
Пёсья звезда / Dog Star (2002)
Синестезия / Synesthesia / Gimme Heaven (2005)
Фантастипо / Fantastipo (2005)
Говори, говори / Shaberedomo, Shaberedomo (2007)
Цветы в тени / Kagehinata ni Saku (2008)
Пако и волшебная книга / Paco to Mahou no Ehon (2008)
Битва под Орионом / Manatsu no Orion (2009)
Класс "В" в порядке / Никто не идеален / Daijobu 3 Kumi (2013)
ТЕКУЩИЕ
Белая Башня / Shiroi Kyoto (2003)
Парень, близкий к небу 2 / Tengoku ni Ichiban Chikai Otoko 2 (2001)
Мы - любовники / Koibito Yo (1995)
Хрупкость / Fragile (2016)
ДРУГИЕ ПЕРЕВОДЫ
Весь огромный мир / The Whole Wide World (1996)
Когда святые маршируют / Seija no Koushin (1998)
Не забывайте говорить Спасибо. Не уходите с раздачи!   
Торрент: Зарегистрирован [08 июн 2018, 16:25] Для скачивания .torrent
необходима регистрация
Или скачать с помощью
MediaGet
Статус:
Проверен
 
.torrent скачан: 0 раз
Хэш: a2559c40af8a1a94bf9d1be94526e9a0de890a81
Размер: 7.39 ГБ (7 938 982 413 байт)
   Стать Автором раздачи
   
Цитата
  • Похожие торренты
    Ответы
    Просмотры
    Последнее сообщение

Вернуться в Японские сериалы с субтитрами

Кто сейчас на конференции

Сейчас эту тему просматривают: нет зарегистрированных пользователей и гости: 1