История моей семьи / Wagaya no Rekishi [Kono Keita] [2-3/3] [JAP+SUB] [Япония, 2010, Мелодрама, HDTVRip] [RAW]

 Статистика раздачи 
Размер: 4.05 ГБ   |  Зарегистрирован: 08 июн 2018, 16:06   |   .torrent скачан: 0 раз
Сидеров: 1  [ 0 байт/сек ]     Личеров: 0  [ 0 байт/сек ]  
  
Аватара пользователя
 
Раздал: 0 байт
Скачал: 0 байт
Ратио: Inf.
Сообщения: 114865
Стаж: 8 лет 3 месяца 9 дней

История моей семьи / Wagaya no Rekishi
Страна: Япония
Год выпуска: 2010
Жанр: Мелодрама
Продолжительность: 3 серии по 120-130 мин.
Режиссер: Kono Keita
Язык: Японский
Перевод: Русские субтитры
Формат субтитров: softsub (ASS)
Доп.информация:
Перевод на английский: sora_takaku
Перевод на русский: J
Описание:
Голодные послевоенные годы, вынудили старшую дочь семьи Яме, Масако, устроиться на работу. Она отказалась от учебы в школе, простилась со своей первой любовью, и все это ради своей семьи. Шли годы, Масако стала очаровательной девушкой, но её семья продолжала бедствовать, отчасти причиной семейных проблем был отец-выдумщик, который своими грандиозными планами доставлял очень большие убытки... Дошло до того, что всей семье пришлось переехать жить на пляж... Несмотря на бедность, семья Яме весела, здорова и в хороших отношениях.
Масако, поняв что её братьев и сестер пора ставить на ноги, устраивается на высокооплачиваемую работу хостеса в ночной клуб.
Начав работать в клубе Накасу она знакомится с Онизукой Дайзо, владельцем клуба.
Он увлечен отношением Масако к своей семье, и спустя время Масако влюбляется в Дайзо....
Shibasaki Kou в роли Яме Масако
Sato Koichi в роли Онизуки Тайдзо
Matsumoto Jun в роли Яме Ёсио
Sato Ryuta в роли Яме Мунэо
Horikita Maki в роли Яме Намико
Eikura Nana в роли Яме Фусако
Nagasawa Masami в роли Ичиносе Юкари
Oizumi Yo в роли Цуру-чан
Tamayama Tetsuji в роли Оура Рюго
Yamamoto Koji в роли Ано Митсунари
Suzuki Sawa в роли Марии
Takada Junji в роли Кога Миёдзи
Amami Yuki в роли Онидзука Тиаки
Fuji Junko в роли Яме Маки
Nishida Toshiyuki в роли Яме Токидзиро
Качество видео: HDTVRip
Формат: AVI
Video: 1280x720 (1.78:1), 29.970 fps, Intel ITU H.264 ~2015 kbps avg, 0.07 bit/pixel
Audio: 48 kHz, MPEG Layer 3, 2 ch, ~128.00 kbps avg
Общее
Полное имя : Wagaya no Rekishi Part3(LAST) (1280x720 h264).avi
Формат : AVI
Формат/Информация : Audio Video Interleave
Размер файла : 2,19 Гбайт
Продолжительность : 2 ч. 25 м.
Общий поток : 2158 Кбит/сек
Программа кодирования : MEncoder UNKNOWN-4.2.4
Библиотека кодирования : MPlayer
Видео
Идентификатор : 0
Формат : AVC
Формат/Информация : Advanced Video Codec
Профиль формата : Main@L3.1
Параметр CABAC формата : Да
Параметр ReFrames формата : 2 кадра
Идентификатор кодека : h264
Продолжительность : 2 ч. 25 м.
Битрейт : 2000 Кбит/сек
Ширина : 1280 пикселей
Высота : 720 пикселей
Соотношение сторон : 16:9
Частота кадров : 29,970 кадров/сек
Цветовое пространство : YUV
Субдискретизация насыщенности : 4:2:0
Битовая глубина : 8 бит
Тип развёртки : Прогрессивная
Бит/(Пиксели*Кадры) : 0.072
Размер потока : 2,04 Гбайт (93%)
Библиотека кодирования : x264 core 67 r1173 f6d3166
Настройки программы : cabac=1 / ref=1 / deblock=1:0:0 / analyse=0x1:0x111 / me=hex / subme=6 / psy_rd=1.0:0.0 / mixed_ref=0 / me_range=16 / chroma_me=1 / trellis=1 / 8x8dct=0 / cqm=0 / deadzone=21,11 / chroma_qp_offset=-2 / threads=3 / nr=0 / decimate=1 / mbaff=0 / bframes=3 / b_pyramid=0 / b_adapt=1 / b_bias=0 / direct=3 / wpredb=1 / keyint=250 / keyint_min=25 / scenecut=40 / rc=abr / bitrate=2000 / ratetol=1.0 / qcomp=0.60 / qpmin=10 / qpmax=51 / qpstep=4 / ip_ratio=1.40 / pb_ratio=1.30 / aq=1:1.00
Аудио
Идентификатор : 1
Формат : MPEG Audio
Версия формата : Version 1
Профиль формата : Layer 3
Режим : Joint stereo
Расширение режима : MS Stereo
Идентификатор кодека : 55
Идентификатор кодека/Подсказка : MP3
Продолжительность : 2 ч. 25 м.
Вид битрейта : Постоянный
Битрейт : 128 Кбит/сек
Каналы : 2 канала
Частота : 48,0 КГц
Метод сжатия : С потерями
Задержка видео : 33 мс.
Размер потока : 133 Мбайт (6%)
Выравнивание : Соединение по промежуткам
Продолжительность промежутка : 24 мс. (0,72 видеокадр)
Время предзагрузки промежутка : 504 мс.
Библиотека кодирования : LAME3.98
Dialogue: 0,1:26:11.00,1:26:14.73,Muneo,,0000,0000,0000,,Тебя легко рассмешить. Вот так!
Dialogue: 0,1:26:15.83,1:26:18.99,maria,,0000,0000,0000,,Эй! Щекотно!
Dialogue: 0,1:26:19.06,1:26:24.19,Default,,0000,0000,0000,,Дядя Мунео оставил место ассистента Фурукавы Роппа.
Dialogue: 0,1:26:25.20,1:26:32.63,Default,,0000,0000,0000,,На южном полюсе нашли и спасли лаек Таро и Джиро, которых уже не думали увидеть живыми.
Dialogue: 0,1:26:34.93,1:26:42.26,Default,,0000,0000,0000,,В это время Цуру-чан вместе с командой строителей совершал переход в дикие края, где они должны были построить дамбу.
Dialogue: 0,1:26:44.16,1:26:48.50,someone,,0000,0000,0000,,Семпай, вы слышали? Спасли Таро и Джиро!
Dialogue: 0,1:26:47.33,1:26:49.03,someone,,0000,0000,0000,,Правда?
Dialogue: 0,1:26:49.06,1:26:51.03,Tsuru-chan,,0000,0000,0000,,Серьезно?
Dialogue: 0,1:26:51.06,1:26:53.69,someone,,0000,0000,0000,,Молодцы, выжили!
Dialogue: 0,1:27:07.50,1:27:10.29,masami,,0000,0000,0000,,Не хотите к нам заглянуть?
Dialogue: 0,1:27:30.66,1:27:32.23,masami,,0000,0000,0000,,Сенсей!
Dialogue: 0,1:27:35.26,1:27:37.56,Koga etc.,,0000,0000,0000,,Наташа!
Dialogue: 0,1:27:40.13,1:27:43.46,Koga etc.,,0000,0000,0000,,Наташа! Что с тобой?
Dialogue: 0,1:27:50.30,1:27:52.23,Masako,,0000,0000,0000,,Извините...
Dialogue: 0,1:27:52.26,1:27:56.29,someone,,0000,0000,0000,,Вы не должны так часто пользоваться рабочим телефоном!
Dialogue: 0,1:27:59.50,1:28:01.66,Masako,,0000,0000,0000,,Алло?
Dialogue: 0,1:28:02.90,1:28:04.79,Masako,,0000,0000,0000,,В самом деле?
Dialogue: 0,1:28:47.73,1:28:51.06,Yoshio,,0000,0000,0000,,Я всегда буду с тобой.
Dialogue: 0,1:29:13.96,1:29:27.09,inf,,0000,0000,0000,,{\pos(474,40)}*Асакуса - район гейш и развлекательный центр Токио
Dialogue: 0,1:29:13.96,1:29:28.09,Default,,0000,0000,0000,,В апреле того года писатель Нагаи Кафу, очень любивший Асакуса, скончался в собственном доме.
Dialogue: 0,1:29:50.63,1:29:53.93,Muneo,,0000,0000,0000,,За возвращение Юкари! Ура!
Dialogue: 0,1:29:53.93,1:29:55.56,all,,0000,0000,0000,,Ура!
Dialogue: 0,1:30:00.26,1:30:01.89,dad,,0000,0000,0000,,Добро пожаловать обратно.
Dialogue: 0,1:30:02.53,1:30:04.19,masami,,0000,0000,0000,,Спасибо.
Dialogue: 0,1:30:04.96,1:30:10.39,Default,,0000,0000,0000,,С последнего визита Юкари в наш дом прошло почти 8 лет.
Dialogue: 0,1:30:10.40,1:30:13.26,Muneo,,0000,0000,0000,,Как все было тогда, в тайфун?
Dialogue: 0,1:30:13.26,1:30:17.86,masami,,0000,0000,0000,,Очень страшно. Палуба наклонилась вот так, правда?
Dialogue: 0,1:30:17.90,1:30:21.26,Yoshio,,0000,0000,0000,,Я думал, нам обоим не выжить.
Dialogue: 0,1:30:21.96,1:30:25.59,dad,,0000,0000,0000,,Слава богам, вы оба живы и здоровы.
Dialogue: 0,1:30:25.60,1:30:28.69,masami,,0000,0000,0000,,А чем сейчас занимается Цуру-чан?
Dialogue: 0,1:30:28.73,1:30:30.73,Fusako,,0000,0000,0000,,Не спрашивай меня.
Dialogue: 0,1:30:31.20,1:30:36.29,Muneo,,0000,0000,0000,,Он что-то писал мне о строительстве дамбы в Тояма.
Dialogue: 0,1:30:36.36,1:30:39.39,Namiko,,0000,0000,0000,,Какая у него беспокойная жизнь.
Dialogue: 0,1:30:39.43,1:30:43.63,ano,,0000,0000,0000,,Юкари, а когда ты танцевала стриптиз, тебе не было холодно?
Dialogue: 0,1:30:46.53,1:30:48.59,Muneo,,0000,0000,0000,,Мария, Мария! Который час?
Dialogue: 0,1:30:48.66,1:30:50.23,maria,,0000,0000,0000,,Девять.
http://rutracker.org/forum/viewtopic.php?t=3061465 - только первая серия
http://rutracker.org/forum/viewtopic.php?t=3061447 - только первая серия
Для тех, кто не любит смену перевода, в раздачу добавлены субтитры к первой серии.
Не забывайте говорить Спасибо. Не уходите с раздачи!   
Торрент: Зарегистрирован [08 июн 2018, 16:06] Для скачивания .torrent
необходима регистрация
Или скачать с помощью
MediaGet
Статус:
Проверен
 
.torrent скачан: 0 раз
Хэш: 2a187d5c43ec37b9fe12934422232cb5e75dad81
Размер: 4.05 ГБ (4 352 647 733 байт)
   Стать Автором раздачи
   
Цитата
  • Похожие торренты
    Ответы
    Просмотры
    Последнее сообщение

Вернуться в Японские сериалы с субтитрами

Кто сейчас на конференции

Сейчас эту тему просматривают: нет зарегистрированных пользователей и гости: 1