Первая любовь / First Love [11/11] (Шоно Дзиро / Shono Jiro) [Япония, 2002, романтика, мелодрама, TVRip] [JAP+SUB]

 Статистика раздачи 
Размер: 7.49 ГБ   |  Зарегистрирован: 08 июн 2018, 15:38   |   .torrent скачан: 0 раз
Сидеров: 0  [ 0 байт/сек ]     Личеров: 0  [ 0 байт/сек ]  
  
Аватара пользователя
 
Раздал: 0 байт
Скачал: 0 байт
Ратио: Inf.
Сообщения: 114865
Стаж: 8 лет 3 месяца 8 дней

Первая любовь / First Love
Страна: Япония
Год выпуска: 2002
Жанр: романтика, мелодрама
Количество эпизодов: 11
Продолжительность: ~45 мин/серия
Период показа: с 17 апреля 2002 года по 26 июня 2002 года
Русские субтитры: ass, без хардсаба
Доп. информация по субтитрам: перевод - Kyokorin-hime & R@lph
Оригинальная аудиодорожка: японская
Режисер: Шоно Дзиро / Shono Jiro, Имаи Нацуки / Imai Natsuki, Мацубара Хироши / Matsubara Hiroshi
Автор сценария: Оиши Шизука / Ooishi Shizuka
В ролях:
* Fukada Kyoko в роли Эзава Касуми
* Watabe Atsuro в роли Тодо Нао
* Wakui Emi в роли Эзава Томоко
* Ikeuchi Hiroyuki в роли Киба Сэичи
* Ichinohe Nami в роли Хамада Марико
* Ono Takehiko в роли Эзава Мамору
* Nishiyama Mayuko в роли Юка Юко
* Omori Akemi в роли Эзава Акари
* Kuga Yoko в роли Гоми Таэко
Openning: Utada Hikaru - Sakura Drops
Описание:
Эзава Касуми в шоке от того, что женихом её старшей сестры является человек, в которого она была влюблена 5 лет назад в старшей школе. В то время он был её учителем, но бросил работу из-за чувства вины. Касуми все это время пыталась забыть ту первую любовь и человека, разбившего сердце. А теперь им вместе придется скрыть то, что было тогда, от людей, с которыми они сейчас встречаются...

Качество видео: TVRip
Видео (серии 1-9): 720x512 (1.406:1), 29.970 fps, XviD ~1976 kbps avg, 0.179 bit/pixel
Аудио (серии 1-9): 48 kHz, MPEG Layer 3, 2 ch, ~128 Kbps avg
Видео (серии 10-11): 688x496 (1.387:1), 29.970 fps, XviD ~2008 kbps avg, 0.196 bit/pixel
Аудио (серии 10-11): 48 kHz, MPEG Layer 3, 2 ch, ~112 Kbps avg
Общее
Полное имя : First Love - 01.avi
Формат : AVI
Формат/Информация : Audio Video Interleave
Размер файла : 699 Мбайт
Продолжительность : 46 м.
Общий поток : 2121 Кбит/сек
Программа кодирования : VirtualDubMod 1.5.4.1 (build 2178/release)
Библиотека кодирования : VirtualDubMod build 2178/release
Видео
Идентификатор : 0
Формат : MPEG-4 Visual
Профиль формата : Advanced Simple@L5
Параметр BVOP формата : 1
Параметр QPel формата : Нет
Параметр GMC формата : Без точки перехода
Параметр матрицы формата : Выборочная
Идентификатор кодека : XVID
Идентификатор кодека/Подсказка : XviD
Продолжительность : 46 м.
Битрейт : 1976 Кбит/сек
Ширина : 720 пикс.
Высота : 512 пикс.
Соотношение сторон : 1,406
Частота кадров : 29,970 кадр/сек
Цветовое пространство : YUV
Подвыборка цветности : 4:2:0
Битовая глубина : 8 бит
Тип развёртки : Прогрессивная
Метод сжатия : С потерями
Бит/(Пиксели*Кадры) : 0.179
Размер потока : 652 Мбайт (93%)
Библиотека кодирования : XviD 0039 build=2005.09.25 (UTC 2005-09-25)
Аудио
Идентификатор : 1
Формат : MPEG Audio
Версия формата : Version 1
Профиль формата : Layer 3
Режим : Joint stereo
Расширение режима : MS Stereo
Идентификатор кодека : 55
Идентификатор кодека/Подсказка : MP3
Продолжительность : 46 м.
Вид битрейта : Переменный
Битрейт : 128 Кбит/сек
Каналы : 2 канала
Частота : 48,0 КГц
Размер потока : 43,2 Мбайт (6%)
Выравнивание : Соединение по промежуткам
Продолжительность промежутка : 24 мс. (0,72 видеокадр)
Время предзагрузки промежутка : 486 ms
Библиотека кодирования : LAME3.96r
Настройки программы : -m j -V 4 -q 2 -lowpass 17.5 --abr 128
Общее
Полное имя : F:\VIDEO\razdacha\First Love\First Love - 10.avi
Формат : AVI
Формат/Информация : Audio Video Interleave
Размер файла : 699 Мбайт
Продолжительность : 45 м.
Общий поток : 2135 Кбит/сек
Программа кодирования : VirtualDubMod 1.5.4.1 (build 2178/release)
Библиотека кодирования : VirtualDubMod build 2178/release
Видео
Идентификатор : 0
Формат : MPEG-4 Visual
Профиль формата : Advanced Simple@L5
Параметр BVOP формата : 1
Параметр QPel формата : Нет
Параметр GMC формата : Без точки перехода
Параметр матрицы формата : Выборочная
Идентификатор кодека : XVID
Идентификатор кодека/Подсказка : XviD
Продолжительность : 45 м.
Битрейт : 2008 Кбит/сек
Ширина : 688 пикс.
Высота : 496 пикс.
Соотношение сторон : 1,387
Частота кадров : 29,970 кадр/сек
Цветовое пространство : YUV
Подвыборка цветности : 4:2:0
Битовая глубина : 8 бит
Тип развёртки : Прогрессивная
Метод сжатия : С потерями
Бит/(Пиксели*Кадры) : 0.196
Размер потока : 658 Мбайт (94%)
Библиотека кодирования : XviD 1.1.0 (UTC 2005-11-22)
Аудио
Идентификатор : 1
Формат : MPEG Audio
Версия формата : Version 1
Профиль формата : Layer 3
Режим : Joint stereo
Расширение режима : MS Stereo
Идентификатор кодека : 55
Идентификатор кодека/Подсказка : MP3
Продолжительность : 45 м.
Вид битрейта : Переменный
Битрейт : 112 Кбит/сек
Каналы : 2 канала
Частота : 48,0 КГц
Метод сжатия : С потерями
Размер потока : 37,1 Мбайт (5%)
Выравнивание : Соединение по промежуткам
Продолжительность промежутка : 24 мс. (0,72 видеокадр)
Время предзагрузки промежутка : 539 ms
Dialogue: 0,0:00:05.25,0:00:08.80,undertitle,,0000,0000,0000,,{\pos(331,312)}Это было 6 лет назад...
Dialogue: 0,0:00:17.33,0:00:19.20,Default,,0000,0000,0000,,Тишина в классе!
Dialogue: 0,0:00:20.20,0:00:21.36,Default,,0000,0000,0000,,Перекличка.
Dialogue: 0,0:00:21.36,0:00:25.43,Minds,,0000,0000,0000,,Нао - преподаватель литературы.
Dialogue: 0,0:00:25.43,0:00:29.30,Minds,,0000,0000,0000,,Но во время переклички он был\Nвсегда каким-то другим.
Dialogue: 0,0:00:30.21,0:00:32.41,Default,,0000,0000,0000,,- Абе!\N- Да!
Dialogue: 0,0:00:32.41,0:00:35.14,Default,,0000,0000,0000,,- Иимори!\N- Йо!
Dialogue: 0,0:00:36.14,0:00:37.25,Default,,0000,0000,0000,,Ишигава!
Dialogue: 0,0:00:37.25,0:00:40.32,Minds,,0000,0000,0000,,Он - высокий, но немного старомодный.
Dialogue: 0,0:00:40.32,0:00:42.32,Default,,0000,0000,0000,,- Так... Инагаки.\N- Да!
Dialogue: 0,0:00:42.32,0:00:44.39,Default,,0000,0000,0000,,- Имаизуми!\N- Да!
Dialogue: 0,0:00:44.39,0:00:45.39,Default,,0000,0000,0000,,- Уэшима!\N- Да!
Dialogue: 0,0:00:45.39,0:00:48.38,Minds,,0000,0000,0000,,Не трудно догадаться, что девушки у него не было.
Dialogue: 0,0:00:53.30,0:00:55.50,Minds,,0000,0000,0000,,На следующий день, после этой травмы...
Dialogue: 0,0:00:56.43,0:00:58.00,Default,,0000,0000,0000,,Доброе утро!
Dialogue: 0,0:01:04.21,0:01:06.31,Minds,,0000,0000,0000,,Когда мы проходили мимо друг друга\Nс безразличными лицами,
Dialogue: 0,0:01:06.31,0:01:08.41,Minds,,0000,0000,0000,,сердце моё начинало биться быстрее.
Dialogue: 0,0:01:08.41,0:01:10.98,Minds,,0000,0000,0000,,Это был наш секрет.
27.06.2012: ВНИМАНИЕ! Добавлены 9, 10 и 11 серии. Обновите торрент-файл!
Великолепный Шпион / Karei Naru Spy
704x396 / EP 01: http://rutracker.org/forum/viewtopic.php?t=2833253
1280x720 / EP 02-03: http://rutracker.org/forum/viewtopic.php?t=3335956
Провидица Мегуру / Mirai Koshi Meguru
704x396 / EP 1-7: http://rutracker.org/forum/viewtopic.php?t=1799017
704x396 / EP 8-10: http://rutracker.org/forum/viewtopic.php?t=3608027
Честный парень/Massugu na Otoko
480x272 / EP 1-10: http://rutracker.org/forum/viewtopic.php?t=3383136
704x396 / EP 1-10: http://rutracker.org/forum/viewtopic.php?t=2957761
Небеса земля и люди / Ten Chi Jin
1280x720 / EP 1-47: http://rutracker.org/forum/viewtopic.php?t=1769786
Такому в школе не научат! / Gakko ja Oshierarenai!
704x396 / EP 1-10 (раздача 1): http://rutracker.org/forum/viewtopic.php?t=1056972
704x396 / EP 1-10 (раздача 2): http://rutracker.org/forum/viewtopic.php?t=1083038
Женщина-гора, женщина-стена / Yama Onna Kabe Onna
1024x576 / EP 1-12: http://rutracker.org/forum/viewtopic.php?t=2263591
1280x720 / EP 1-12: http://rutracker.org/forum/viewtopic.php?t=2802537
Я ненавижу Рождество / XMAS NANTE DAIKIRAI
640x480 / EP 1-4: http://rutracker.org/forum/viewtopic.php?t=1580283
На расстоянии / Remote
512x384 / EP 1-10: http://rutracker.org/forum/viewtopic.php?t=1062551
Друзья / Friends
640x352 / EP 1-4: http://rutracker.org/forum/viewtopic.php?t=875470
Клубника на пирожном / Strawberry on the Shortcake
512х288 / EP 1-10: http://rutracker.org/forum/viewtopic.php?t=1046964
704x384 / EP 1-10: http://rutracker.org/forum/viewtopic.php?t=1440303
Боже, дай мне еще немного времени / Kamisama, Mou Sukoshi Dake
512x384 / EP 1-12: http://rutracker.org/forum/viewtopic.php?t=1522743
Яттерман / Yatterman
480x208: http://rutracker.org/forum/viewtopic.php?t=2974955
640x272: http://rutracker.org/forum/viewtopic.php?t=2301379
688x288: http://rutracker.org/forum/viewtopic.php?t=2984794
720x304: http://rutracker.org/forum/viewtopic.php?t=2939780
720x480: http://rutracker.org/forum/viewtopic.php?t=2439406
1280x534: http://rutracker.org/forum/viewtopic.php?t=2969586
Девушки-камикадзе / Kamikaze Girls
608x336: http://rutracker.org/forum/viewtopic.php?t=243100
640x352: http://rutracker.org/forum/viewtopic.php?t=1943277
1280x720: http://rutracker.org/forum/viewtopic.php?t=2902745
Колдун 2 / Onmyoji 2
720x400: http://rutracker.org/forum/viewtopic.php?t=480238
720x480 (раздача 1): http://rutracker.org/forum/viewtopic.php?t=1951167
720x480 (раздача 2): http://rutracker.org/forum/viewtopic.php?t=1962747
800x432: http://rutracker.org/forum/viewtopic.php?t=116101
Школьный день мертвецов
576x320: http://rutracker.org/forum/viewtopic.php?t=3628359
Куклы / Dolls
320x176: http://rutracker.org/forum/viewtopic.php?t=2341170
480x272: http://rutracker.org/forum/viewtopic.php?t=2341118
512x272: http://rutracker.org/forum/viewtopic.php?t=637341
704x384: http://rutracker.org/forum/viewtopic.php?t=1852798
704x544: http://rutracker.org/forum/viewtopic.php?t=2028026
720x400: http://rutracker.org/forum/viewtopic.php?t=1715322
720x576: http://rutracker.org/forum/viewtopic.php?t=1096506
Не забывайте говорить Спасибо. Не уходите с раздачи!   
Торрент: Зарегистрирован [08 июн 2018, 15:38] Для скачивания .torrent
необходима регистрация
Или скачать с помощью
MediaGet
Статус:
Проверен
 
.torrent скачан: 0 раз
Хэш: 1b35ccb9189939fda77f87834c81f367152cbdd8
Размер: 7.49 ГБ (8 040 487 471 байт)
   Стать Автором раздачи
   
Цитата
  • Похожие торренты
    Ответы
    Просмотры
    Последнее сообщение

Вернуться в Японские сериалы с субтитрами

Кто сейчас на конференции

Сейчас эту тему просматривают: нет зарегистрированных пользователей и гости: 1