[MV] G-Dragon (GD) - That XX [2012, Корея, K-POP, HDTVRip] [KOR+SUB]

 Статистика раздачи 
Размер: 44.99 МБ   |  Зарегистрирован: 07 июн 2018, 22:36   |   .torrent скачан: 0 раз
Сидеров: 0  [ 0 байт/сек ]     Личеров: 0  [ 0 байт/сек ]  
  
Аватара пользователя
 
Раздал: 0 байт
Скачал: 0 байт
Ратио: Inf.
Сообщения: 114865
Стаж: 8 лет 2 месяца 13 дней

G-DRAGON - That XX
Год выпуска: 2012
Страна: Южная Корея
Жанр: KPop
Продолжительность: 03:34
Перевод: субтитры
Описание:
Новый сингл от GD - That XX ( Этот у**)
Доп. информация:
Перевод, тайминг, оформление, - amaneshka
ОБЯЗАТЕЛЬНО УСТАНОВИТЕ ШРИФТЫ!!!
СМОТРЕТЬ ЧЕРЕЗ Media Player Classic!!!
Video: MPEG4 Video (H264) 1280x720 23.98fps 1 553 Kbps[Video]
Audio: AAC 44100Hz stereo 1411Kbps [Audio]
Format : MPEG-4
Format profile : Base Media / Version 2
Codec ID : mp42
File size : 44.8 MiB
Duration : 3mn 34s
Overall bit rate : 1 748 Kbps
Encoded date : UTC 2012-08-30 14:34:29
Tagged date : UTC 2012-08-30 14:34:29
gsst : 0
gstd : 214993
gssd : BADC213A4HH1346429947675351
Video #1
ID : 1
Format : AVC
Format/Info : Advanced Video Codec
Format profile : High@L3.1
Format settings, CABAC : Yes
Format settings, ReFrames : 1 frame
Codec ID : avc1
Codec ID/Info : Advanced Video Coding
Duration : 3mn 34s
Bit rate mode : Variable
Bit rate : 1 553 Kbps
Maximum bit rate : 3 991 Kbps
Width : 1 280 pixels
Height : 720 pixels
Display aspect ratio : 16:9
Frame rate mode : Constant
Frame rate : 23.976 fps
Resolution : 24 bits
Colorimetry : 4:2:0
Scan type : Progressive
Bits/(Pixel*Frame) : 0.070
Stream size : 39.8 MiB (89%)
Encoded date : UTC 1970-01-01 00:00:00
Tagged date : UTC 2012-08-30 14:34:29
Audio #2
ID : 2
Format : AAC
Format/Info : Advanced Audio Codec
Format version : Version 4
Format profile : LC
Format settings, SBR : No
Codec ID : 40
Duration : 3mn 34s
Bit rate mode : Variable
Bit rate : 192 Kbps
Maximum bit rate : 202 Kbps
Channel(s) : 2 channels
Channel positions : L R
Sampling rate : 44.1 KHz
Resolution : 16 bits
Stream size : 4.92 MiB (11%)
Title : IsoMedia File Produced by Google, 5-11-2011
Encoded date : UTC 2012-08-30 14:34:29
Tagged date : UTC 2012-08-30 14:34:29
Скорость у меня маленькая, но раздаю круглые сутки!


здесь http://rutracker.org/forum/tracker.php?rid=21037789
и здесь http://rutracker.org/forum/tracker.php?rid=6489857

Не забывайте говорить Спасибо. Не уходите с раздачи!   
Торрент: Зарегистрирован [07 июн 2018, 22:36] Для скачивания .torrent
необходима регистрация
Или скачать с помощью
MediaGet
Статус:
Проверен
 
.torrent скачан: 0 раз
Хэш: dedd44a2a2ea397eadd04698ac6616729bb3750c
Размер: 44.99 МБ (47 177 724 байт)
   Стать Автором раздачи
   
Цитата
  • Похожие торренты
    Ответы
    Просмотры
    Последнее сообщение

Вернуться в VMV и др. ролики

Кто сейчас на конференции

Сейчас эту тему просматривают: нет зарегистрированных пользователей и гости: 1