[Live] Yesung - The More I Love (110618 Immortal Song2 ep3) [Корея, 2011, HDTVRip][KOR+SUB]

 Статистика раздачи 
Размер: 71.46 МБ   |  Зарегистрирован: 07 июн 2018, 22:36   |   .torrent скачан: 0 раз
Сидеров: 0  [ 0 байт/сек ]     Личеров: 0  [ 0 байт/сек ]  
  
Аватара пользователя
 
Раздал: 0 байт
Скачал: 0 байт
Ратио: Inf.
Сообщения: 114865
Стаж: 8 лет 2 месяца 13 дней

Yesung - The More I Love
Год выпуска: 2011
Страна: Южная Корея
Жанр: KPop
Продолжительность: 03:54 мин
Перевод: субтитры
Перевод, тайминг, оформление - amaneshka
ОБЯЗАТЕЛЬНО УСТАНОВИТЕ ШРИФТЫ!!!
Дополнительная информация:
Выступление Йесона на шоу Immortal Song2. Он продемонстрировал свои шикарные вокальные данные и получил победу))
Video: MPEG4 Video (H264) 1280x720 [Video]
Audio: AAC 44100Hz stereo 1411Kbps [Audio]
Format : MPEG-4
Format profile : Base Media / Version 2
Codec ID : mp42
File size : 70.9 MiB
Duration : 3mn 54s
Overall bit rate : 2 533 Kbps
Encoded date : UTC 2011-06-18 14:52:36
Tagged date : UTC 2011-06-18 14:52:36
gsst : 0
gstd : 234871
gssd : B4A7DD8E5HM1313610127435395
gshh : v5.cache8.c.youtube.com
Video #1
ID : 1
Format : AVC
Format/Info : Advanced Video Codec
Format profile : High@L3.1
Format settings, CABAC : Yes
Format settings, ReFrames : 1 frame
Codec ID : avc1
Codec ID/Info : Advanced Video Coding
Duration : 3mn 54s
Bit rate mode : Variable
Bit rate : 2 374 Kbps
Maximum bit rate : 5 219 Kbps
Width : 1 280 pixels
Height : 720 pixels
Display aspect ratio : 16:9
Frame rate mode : Variable
Frame rate : 29.970 fps
Minimum frame rate : 29.412 fps
Maximum frame rate : 200.000 fps
Resolution : 24 bits
Colorimetry : 4:2:0
Scan type : Progressive
Bits/(Pixel*Frame) : 0.086
Stream size : 66.5 MiB (94%)
Encoded date : UTC 1970-01-01 00:00:00
Tagged date : UTC 2011-06-18 14:52:41
Audio #2
ID : 2
Format : AAC
Format/Info : Advanced Audio Codec
Format version : Version 4
Format profile : LC
Format settings, SBR : No
Codec ID : 40
Duration : 3mn 54s
Bit rate mode : Variable
Bit rate : 152 Kbps
Maximum bit rate : 178 Kbps
Channel(s) : 2 channels
Channel positions : L R
Sampling rate : 44.1 KHz
Resolution : 16 bits
Stream size : 4.25 MiB (6%)
Title : IsoMedia File Produced by Google, 5-11-2011
Encoded date : UTC 2011-06-18 14:52:38
Tagged date : UTC 2011-06-18 14:52:41
1
00:00:00,000 --> 00:00:06,000 SSA: Dialogue, Layer: 0, Style: Book Antiqua, Name: , MarginL: 0000, MarginR: 0000, MarginV: 0000, Effect:
{\pos(294,54)}перевод, тайминг, оформление -
2
00:00:00,000 --> 00:03:52,000 SSA: Dialogue, Layer: 0, Style: Dama Bubey Amaneshka, Name: , MarginL: 0000, MarginR: 0000, MarginV: 0000, Effect:
{\pos(537,62)}amaneshka
3
00:00:00,630 --> 00:00:02,770 SSA: Dialogue, Layer: 0, Style: Book Antiqua, Name: , MarginL: 0000, MarginR: 0000, MarginV: 0000, Effect:
{\c&H4BECFF&\pos(303,344)}Yesung - Чем больше люблю
4
00:00:00,630 --> 00:00:02,770 SSA: Dialogue, Layer: 0, Style: Book Antiqua, Name: , MarginL: 0000, MarginR: 0000, MarginV: 0000, Effect:
{\pos(311,472)\c&H4BECFF&} Immortal Song2 эп.3
5
00:00:39,320 --> 00:00:45,770 SSA: Dialogue, Layer: 0, Style: Mon Amour Two, Name: , MarginL: 0000, MarginR: 0000, MarginV: 0000, Effect:
{\fad(500,500)\blur5}На дороге, что скрывается за холмом,
6
00:00:47,310 --> 00:00:52,160 SSA: Dialogue, Layer: 0, Style: Mon Amour Two, Name: , MarginL: 0000, MarginR: 0000, MarginV: 0000, Effect:
{\fad(500,500)\blur5}где давно уже не был,
7
00:00:54,560 --> 00:01:01,620 SSA: Dialogue, Layer: 0, Style: Mon Amour Two, Name: , MarginL: 0000, MarginR: 0000, MarginV: 0000, Effect:
{\fad(500,500)\blur5}кажется, словно ты
8
00:00:57,340 --> 00:01:01,620 SSA: Dialogue, Layer: 0, Style: Mon Amour Two, Name: , MarginL: 0000, MarginR: 0000, MarginV: 0000, Effect:
{\fad(500,500)\blur5\pos(495,470)}стоишь там
9
00:01:01,820 --> 00:01:08,700 SSA: Dialogue, Layer: 0, Style: Mon Amour Two, Name: , MarginL: 0000, MarginR: 0000, MarginV: 0000, Effect:
{\fad(500,500)\blur5}как и много лет назад
Скорость у меня маленькая, но раздаю круглые сутки!

Другие мои переводы:
здесь http://rutracker.org/forum/tracker.php?rid=21037789
и здесь http://rutracker.org/forum/tracker.php?rid=6489857
Не забывайте говорить Спасибо. Не уходите с раздачи!   
Торрент: Зарегистрирован [07 июн 2018, 22:36] Для скачивания .torrent
необходима регистрация
Или скачать с помощью
MediaGet
Статус:
Проверен
 
.torrent скачан: 0 раз
Хэш: 65d8a7bd404baf4852a65011cd1ff5eac51c112f
Размер: 71.46 МБ (74 935 021 байт)
   Стать Автором раздачи
   
Цитата
  • Похожие торренты
    Ответы
    Просмотры
    Последнее сообщение

Вернуться в VMV и др. ролики

Кто сейчас на конференции

Сейчас эту тему просматривают: нет зарегистрированных пользователей и гости: 1