[MV] Super Junior KRY - Promise you [Япония / Корея, 2012г., JPop, HDTVRip] [JAP+SUB]

 Статистика раздачи 
Размер: 56.39 МБ   |  Зарегистрирован: 07 июн 2018, 22:36   |   .torrent скачан: 0 раз
Сидеров: 0  [ 0 байт/сек ]     Личеров: 0  [ 0 байт/сек ]  
  
Аватара пользователя
 
Раздал: 0 байт
Скачал: 0 байт
Ратио: Inf.
Сообщения: 114865
Стаж: 8 лет 2 месяца 7 дней

Super Junior KRY - Promise you
Год выпуска: 2013
Страна: Япония / Корея
Жанр: JPop
Продолжительность: 04:10
Перевод: субтитры
Описание:
Первый японский сингл подгруппы SuJu KRY
Доп. информация:
Перевод, тайминг, оформление, - amaneshka
ОБЯЗАТЕЛЬНО УСТАНОВИТЕ ШРИФТЫ!!!
СМОТРЕТЬ ЧЕРЕЗ Media Player Classic!!!
Video: Xvid 1280x720 23.98fps1 715 Kbps [Stream 00]
Audio: MPEG Audio Layer 3 48000Hz stereo 128kbps [Stream 01]
Format : AVI
Format/Info : Audio Video Interleave
File size : 55.4 MiB
Duration : 4mn 10s
Overall bit rate : 1 853 Kbps
Writing application : VirtualDubMod 1.5.10.2 (build 2540/release)
Writing library : VirtualDubMod build 2540/release
Video
ID : 0
Format : MPEG-4 Visual
Format profile : Advanced Simple@L5
Format settings, BVOP : Yes
Format settings, QPel : Yes
Format settings, GMC : 3 warppoints
Format settings, Matrix : Default (H.263)
Muxing mode : Packed bitstream
Codec ID : XVID
Codec ID/Hint : XviD
Duration : 4mn 10s
Bit rate : 1 715 Kbps
Width : 1 280 pixels
Height : 720 pixels
Display aspect ratio : 16:9
Frame rate : 23.976 fps
Color space : YUV
Chroma subsampling : 4:2:0
Bit depth : 8 bits
Scan type : Progressive
Bits/(Pixel*Frame) : 0.078
Stream size : 51.3 MiB (93%)
Writing library : XviD 1.2.1 (UTC 2008-12-04)
Audio
ID : 1
Format : MPEG Audio
Format version : Version 1
Format profile : Layer 3
Codec ID : 55
Codec ID/Hint : MP3
Duration : 4mn 10s
Bit rate mode : Constant
Bit rate : 128 Kbps
Channel(s) : 2 channels
Sampling rate : 48.0 KHz
Stream size : 3.83 MiB (7%)
Alignment : Aligned on interleaves
Interleave, duration : 42 ms (1.00 video frame)
Interleave, preload duration : 504 ms
Writing library : LAME3.98r
Encoding settings : -m s -V 4 -q 2 -lowpass 17 -b 128
Скорость у меня маленькая, но раздаю круглые сутки!


здесь http://rutracker.org/forum/tracker.php?rid=21037789
и здесь http://rutracker.org/forum/tracker.php?rid=6489857

Не забывайте говорить Спасибо. Не уходите с раздачи!   
Торрент: Зарегистрирован [07 июн 2018, 22:36] Для скачивания .torrent
необходима регистрация
Или скачать с помощью
MediaGet
Статус:
Проверен
 
.torrent скачан: 0 раз
Хэш: cec2c22ad1d7e7b079e7161f07ab9df6dbfdbd98
Размер: 56.39 МБ (59 134 178 байт)
   Стать Автором раздачи
   
Цитата
  • Похожие торренты
    Ответы
    Просмотры
    Последнее сообщение

Вернуться в VMV и др. ролики

Кто сейчас на конференции

Сейчас эту тему просматривают: нет зарегистрированных пользователей и гости: 1