[MV+live] Super Junior - From U [2012, Корея, K-POP, HDRip] [KOR+SUB]

 Статистика раздачи 
Размер: 182.49 МБ   |  Зарегистрирован: 07 июн 2018, 22:35   |   .torrent скачан: 0 раз
Сидеров: 0  [ 0 байт/сек ]     Личеров: 0  [ 0 байт/сек ]  
  
Аватара пользователя
 
Раздал: 0 байт
Скачал: 0 байт
Ратио: Inf.
Сообщения: 114865
Стаж: 8 лет 2 месяца 13 дней

Super Junior - FROM U
Год выпуска: 2012
Страна: Южная Корея
Жанр: KPop
Продолжительность: 03:35 и 03:10
Перевод: субтитры (хардсаб)
Описание:
Песня, посвященная всем Ельфикам.
Доп. информация:
Перевод, тайминг, оформление - amaneshka
Видео:
клип - sketsairoh
Performance Mashup - SJbiased
Video: MPEG4 Video (H264) 1280x720 29.97fps 4 707 Kbps и 2 450 Kbps[Video]
Audio: MPEG Audio Layer 3 44100Hz stereo 1411Kbps [Audio]
Format : MPEG-4
Format profile : Base Media
Codec ID : isom
File size : 124 MiB
Duration : 3mn 35s
Overall bit rate : 4 830 Kbps
Encoded date : UTC 2012-08-26 11:35:26
Tagged date : UTC 2012-08-26 11:35:26
Video #1
ID : 1
Format : AVC
Format/Info : Advanced Video Codec
Format profile : High@L4.1
Format settings, CABAC : Yes
Format settings, ReFrames : 3 frames
Codec ID : avc1
Codec ID/Info : Advanced Video Coding
Duration : 3mn 35s
Bit rate mode : Variable
Bit rate : 4 707 Kbps
Maximum bit rate : 7 353 Kbps
Width : 1 280 pixels
Height : 720 pixels
Display aspect ratio : 16:9
Frame rate mode : Constant
Frame rate : 29.970 fps
Resolution : 24 bits
Colorimetry : 4:2:0
Scan type : Progressive
Bits/(Pixel*Frame) : 0.170
Stream size : 121 MiB (97%)
Writing library : x264 core 65 r999kMod cc51047
Encoded date : UTC 2012-08-26 11:35:26
Tagged date : UTC 2012-08-26 11:35:41
Audio #2
ID : 2
Format : MPEG Audio
Format version : Version 1
Format profile : Layer 3
Codec ID : 6B
Duration : 3mn 35s
Bit rate mode : Variable
Bit rate : 121 Kbps
Nominal bit rate : 128 Kbps
Maximum bit rate : 136 Kbps
Channel(s) : 2 channels
Sampling rate : 44.1 KHz
Resolution : 16 bits
Stream size : 3.12 MiB (3%)
Writing library : LAME3.97
Encoding settings : -m s -V 4 -q 2 -lowpass 17 --abr 128
Encoded date : UTC 2012-08-26 11:35:41
Tagged date : UTC 2012-08-26 11:35:41
Format : MPEG-4
Format profile : Base Media
Codec ID : isom
File size : 58.4 MiB
Duration : 3mn 10s
Overall bit rate : 2 576 Kbps
Encoded date : UTC 2012-08-26 11:30:20
Tagged date : UTC 2012-08-26 11:30:20
Video #1
ID : 1
Format : AVC
Format/Info : Advanced Video Codec
Format profile : High@L4.1
Format settings, CABAC : Yes
Format settings, ReFrames : 3 frames
Codec ID : avc1
Codec ID/Info : Advanced Video Coding
Duration : 3mn 10s
Bit rate mode : Variable
Bit rate : 2 450 Kbps
Maximum bit rate : 3 817 Kbps
Width : 1 280 pixels
Height : 720 pixels
Display aspect ratio : 16:9
Frame rate mode : Constant
Frame rate : 29.970 fps
Resolution : 24 bits
Colorimetry : 4:2:0
Scan type : Progressive
Bits/(Pixel*Frame) : 0.089
Stream size : 55.5 MiB (95%)
Writing library : x264 core 65 r999kMod cc51047
Encoded date : UTC 2012-08-26 11:30:20
Tagged date : UTC 2012-08-26 11:30:37
Audio #2
ID : 2
Format : MPEG Audio
Format version : Version 1
Format profile : Layer 3
Codec ID : 6B
Duration : 3mn 10s
Bit rate mode : Variable
Bit rate : 123 Kbps
Nominal bit rate : 128 Kbps
Maximum bit rate : 134 Kbps
Channel(s) : 2 channels
Sampling rate : 44.1 KHz
Resolution : 16 bits
Stream size : 2.79 MiB (5%)
Writing library : LAME3.97
Encoding settings : -m s -V 4 -q 2 -lowpass 17 --abr 128
Encoded date : UTC 2012-08-26 11:30:36
Tagged date : UTC 2012-08-26 11:30:37
[Рус саб live] Super Junior - FROM U (Performance Mashup)

[Рус саб MV] Super Junior - From U
Скорость у меня маленькая, но раздаю круглые сутки!


здесь http://rutracker.org/forum/tracker.php?rid=21037789
и здесь http://rutracker.org/forum/tracker.php?rid=6489857

Не забывайте говорить Спасибо. Не уходите с раздачи!   
Торрент: Зарегистрирован [07 июн 2018, 22:35] Для скачивания .torrent
необходима регистрация
Или скачать с помощью
MediaGet
Статус:
Проверен
 
.torrent скачан: 0 раз
Хэш: 2a39f83c8d6717bb306999f6c86d07835070185b
Размер: 182.49 МБ (191 354 260 байт)
   Стать Автором раздачи
   
Цитата

Вернуться в VMV и др. ролики

Кто сейчас на конференции

Сейчас эту тему просматривают: нет зарегистрированных пользователей и гости: 1