[MV] F.I.X (ft. EunHyuk) - Please Don't Say [2012, Корея, K-POP, HDTVRip] [KOR+SUB]

 Статистика раздачи 
Размер: 33.71 МБ   |  Зарегистрирован: 07 июн 2018, 22:35   |   .torrent скачан: 0 раз
Сидеров: 0  [ 0 байт/сек ]     Личеров: 0  [ 0 байт/сек ]  
  
Аватара пользователя
 
Раздал: 0 байт
Скачал: 0 байт
Ратио: Inf.
Сообщения: 114865
Стаж: 8 лет 2 месяца 13 дней

F.I.X - Please Don't Say
Год выпуска: 2012
Страна: Южная Корея
Жанр: KPop
Продолжительность: 03:53
Описание:
Когда ты знаешь человека уже давно, тебе не надо слов, что бы понять его.
В такие минуты хочется закрыть глаза и уши, убеждая себя, что это лишь сон...
В клипе главную мужскую роль исполнил Ынхёк из Супер Джуниор.
Доп. информация:
Перевод, тайминг, оформление - amaneshka
ОБЯЗАТЕЛЬНО УСТАНОВИТЕ ШРИФТЫ!!!
Video: MPEG4 Video (H264) 1280x720 23.98fps 1 050 Kbps[Video]
Audio: AAC 44100Hz stereo 1411Kbps [Audio]
Format : MPEG-4
Format profile : Base Media / Version 2
Codec ID : mp42
File size : 33.5 MiB
Duration : 3mn 53s
Overall bit rate : 1 204 Kbps
Encoded date : UTC 2012-01-02 12:39:55
Tagged date : UTC 2012-01-02 12:39:55
gsst : 0
gstd : 233128
gssd : B4A7D0462MH1338353779195246
Video #1
ID : 1
Format : AVC
Format/Info : Advanced Video Codec
Format profile : High@L3.1
Format settings, CABAC : Yes
Format settings, ReFrames : 1 frame
Codec ID : avc1
Codec ID/Info : Advanced Video Coding
Duration : 3mn 53s
Bit rate mode : Variable
Bit rate : 1 050 Kbps
Maximum bit rate : 3 001 Kbps
Width : 1 280 pixels
Height : 720 pixels
Display aspect ratio : 16:9
Frame rate mode : Constant
Frame rate : 23.976 fps
Resolution : 24 bits
Colorimetry : 4:2:0
Scan type : Progressive
Bits/(Pixel*Frame) : 0.048
Stream size : 29.2 MiB (87%)
Encoded date : UTC 1970-01-01 00:00:00
Tagged date : UTC 2012-01-02 12:39:56

Audio #2

ID : 2
Format : AAC
Format/Info : Advanced Audio Codec
Format version : Version 4
Format profile : LC
Format settings, SBR : No
Codec ID : 40
Duration : 3mn 53s
Bit rate mode : Variable
Bit rate : 152 Kbps
Maximum bit rate : 188 Kbps
Channel(s) : 2 channels
Channel positions : L R
Sampling rate : 44.1 KHz
Resolution : 16 bits
Stream size : 4.22 MiB (13%)
Title : IsoMedia File Produced by Google, 5-11-2011
Encoded date : UTC 2012-01-02 12:39:55
Tagged date : UTC 2012-01-02 12:39:56
Скорость у меня маленькая, но раздаю круглые сутки!


здесь http://rutracker.org/forum/tracker.php?rid=21037789
и здесь http://rutracker.org/forum/tracker.php?rid=6489857

Не забывайте говорить Спасибо. Не уходите с раздачи!   
Торрент: Зарегистрирован [07 июн 2018, 22:35] Для скачивания .torrent
необходима регистрация
Или скачать с помощью
MediaGet
Статус:
Проверен
 
.torrent скачан: 0 раз
Хэш: 663850cc381b56872dabc0771a98b79944f52312
Размер: 33.71 МБ (35 342 503 байт)
   Стать Автором раздачи
   
Цитата
  • Похожие торренты
    Ответы
    Просмотры
    Последнее сообщение

Вернуться в VMV и др. ролики

Кто сейчас на конференции

Сейчас эту тему просматривают: нет зарегистрированных пользователей и гости: 1