[Live] [Billboard] JYJ - Empty [2010, Корея, K-POP, TVRip] [KOR+SUB]

 Статистика раздачи 
Размер: 75.89 МБ   |  Зарегистрирован: 07 июн 2018, 22:34   |   .torrent скачан: 0 раз
Сидеров: 1  [ 0 байт/сек ]     Личеров: 0  [ 0 байт/сек ]  
  
Аватара пользователя
 
Раздал: 0 байт
Скачал: 0 байт
Ратио: Inf.
Сообщения: 114865
Стаж: 8 лет 2 месяца 13 дней

JYJ - Empty

Год выпуска: 2010
Страна: Южная Корея
Жанр: KPop
Продолжительность: 04:06 мин
Перевод: субтитры
Перевод, тайминг, оформление - amaneshka
ОБЯЗАТЕЛЬНО УСТАНОВИТЕ ШРИФТЫ!!!
Дополнительная информация:
Лайв выступление группы на Billboard с их англоязычным синглом Empty.

Video: XVID 848x480 24.00fps [Stream 00]
Audio: MPEG Audio Layer 3 44100Hz stereo 64Kbps [Stream 01]
Format : AVI
Format/Info : Audio Video Interleave
File size : 75.8 MiB
Duration : 3mn 46s
Overall bit rate : 2 806 Kbps
Writing application : Lavf52.39.1
Video
Format : xvid
Codec ID : xvid
Duration : 3mn 46s
Bit rate : 2 731 Kbps
Width : 848 pixels
Height : 480 pixels
Display aspect ratio : 16:9
Frame rate : 24.000 fps
Resolution : 24 bits
Bits/(Pixel*Frame) : 0.280
Stream size : 73.7 MiB (97%)
Audio #1
ID : 1
Format : MPEG Audio
Format version : Version 1
Format profile : Layer 3
Codec ID : 55
Codec ID/Hint : MP3
Duration : 3mn 46s
Bit rate mode : Constant
Bit rate : 64.0 Kbps
Channel(s) : 2 channels
Sampling rate : 44.1 KHz
Resolution : 16 bits
Stream size : 1.73 MiB (2%)
Alignment : Aligned on interleaves
Interleave, duration : 26 ms (0.63 video frame)
Writing library : LAMEUUULAME3.96.1
Скорость у меня маленькая, но раздаю круглые сутки!

Другие мои переводы:
здесь http://rutracker.org/forum/tracker.php?rid=21037789
и здесь http://rutracker.org/forum/tracker.php?rid=6489857
Не забывайте говорить Спасибо. Не уходите с раздачи!   
Торрент: Зарегистрирован [07 июн 2018, 22:34] Для скачивания .torrent
необходима регистрация
Или скачать с помощью
MediaGet
Статус:
Проверен
 
.torrent скачан: 0 раз
Хэш: 8fca553d2f83182e2bfee0185fcbcd5485c003b2
Размер: 75.89 МБ (79 577 873 байт)
   Стать Автором раздачи
   
Цитата
  • Похожие торренты
    Ответы
    Просмотры
    Последнее сообщение

Вернуться в VMV и др. ролики

Кто сейчас на конференции

Сейчас эту тему просматривают: нет зарегистрированных пользователей и гости: 1