[MV] Wheesung Ft. (BEAST) Jun Hyung - Words That Freeze My Heart [Корея, 2011, TVRip][KOR+SUB] (2 Версии)

 Статистика раздачи 
Размер: 206.78 МБ   |  Зарегистрирован: 07 июн 2018, 22:32   |   .torrent скачан: 0 раз
Сидеров: 0  [ 0 байт/сек ]     Личеров: 0  [ 0 байт/сек ]  
  
Аватара пользователя
 
Раздал: 0 байт
Скачал: 0 байт
Ратио: Inf.
Сообщения: 114865
Стаж: 8 лет 2 месяца 7 дней

Wheesung Ft. (BEAST) Jun Hyung -
Words That Freeze My Heart
Год выпуска: 2011
Страна: Южная Корея
Жанр: KPop
Продолжительность: 03:36 и 03:24
Доп. информация:
В чем состоит самая прекрасная ложь в мире, которую произносит мужчина?
Wheesung и Jun Hyung расскрывают для нас эту тайну!))
Именно эти слова заставляют сердце замирать!
Перевод, тайминг, оформление - amaneshka
ОБЯЗАТЕЛЬНО УСТАНОВИТЕ ШРИФТЫ!!!

Обычная версия:
Video: MP43 720x480 4695Kbps [Raw Video 0]
Audio: MPEG Audio Layer 3 44100Hz stereo 320Kbps [Raw Audio 1]
Format : Windows Media
File size : 81.6 MiB
Duration : 3mn 36s
Overall bit rate : 3 158 Kbps
Maximum Overall bit rate : 5 120 Kbps
Encoded date : UTC 1970-01-01 00:00:00.000
Video #1
ID : 1
Format : S-Mpeg 4 v3
Codec ID : MP43
Codec ID/Info : Microsoft MPEG-4 V3
Description of the codec : msmpeg4
Duration : 3mn 36s
Bit rate : 2 704 Kbps
Width : 720 pixels
Height : 480 pixels
Display aspect ratio : 1.500
Frame rate : 30.000 fps
Standard : NTSC
Resolution : 24 bits
Bits/(Pixel*Frame) : 0.261
Stream size : 69.9 MiB (86%)
Audio #2
ID : 2
Format : MPEG Audio
Codec ID : 55
Codec ID/Hint : MP3
Description of the codec : mp3
Duration : 3mn 36s
Bit rate : 320 Kbps
Channel(s) : 2 channels
Sampling rate : 44.1 KHz
Resolution : bit0
Stream size : 8.27 MiB (10%)
Танцевальная версия:
Video: MP43 1024x576 4695Kbps [Raw Video 0]
Audio: MPEG Audio Layer 3 44100Hz stereo 320Kbps [Raw Audio 1]
Format : Windows Media
File size : 124 MiB
Duration : 3mn 24s
Overall bit rate : 5 091 Kbps
Maximum Overall bit rate : 5 120 Kbps
Encoded date : UTC 1970-01-01 00:00:00.000
Video #1
ID : 1
Format : S-Mpeg 4 v3
Codec ID : MP43
Codec ID/Info : Microsoft MPEG-4 V3
Description of the codec : msmpeg4
Duration : 3mn 24s
Bit rate : 4 560 Kbps
Width : 1 024 pixels
Height : 576 pixels
Display aspect ratio : 16:9
Frame rate : 30.000 fps
Resolution : 24 bits
Bits/(Pixel*Frame) : 0.258
Stream size : 111 MiB (90%)
Audio #2
ID : 2
Format : MPEG Audio
Codec ID : 55
Codec ID/Hint : MP3
Description of the codec : mp3
Duration : 3mn 24s
Bit rate : 320 Kbps
Channel(s) : 2 channels
Sampling rate : 44.1 KHz
Resolution : bit0
Stream size : 7.82 MiB (6%)
Скорость у меня маленькая, но раздаю круглые сутки!

Другие мои переводы:
здесь http://rutracker.org/forum/tracker.php?rid=21037789
и здесь http://rutracker.org/forum/tracker.php?rid=6489857
Не забывайте говорить Спасибо. Не уходите с раздачи!   
Торрент: Зарегистрирован [07 июн 2018, 22:32] Для скачивания .torrent
необходима регистрация
Или скачать с помощью
MediaGet
Статус:
Проверен
 
.torrent скачан: 0 раз
Хэш: bcd048d6d22cb765d206c4aaf28cbfae4ac537e6
Размер: 206.78 МБ (216 826 920 байт)
   Стать Автором раздачи
   
Цитата
  • Похожие торренты
    Ответы
    Просмотры
    Последнее сообщение

Вернуться в VMV и др. ролики

Кто сейчас на конференции

Сейчас эту тему просматривают: нет зарегистрированных пользователей и гости: 1