[MV] Homme (Changmin (2AM) & Lee Hyun (8eight)) - I Was Able To Eat Well [Корея, 2011, HDTVRip][KOR+SUB]

 Статистика раздачи 
Размер: 57.3 МБ   |  Зарегистрирован: 07 июн 2018, 22:32   |   .torrent скачан: 0 раз
Сидеров: 0  [ 0 байт/сек ]     Личеров: 0  [ 0 байт/сек ]  
  
Аватара пользователя
 
Раздал: 0 байт
Скачал: 0 байт
Ратио: Inf.
Сообщения: 114865
Стаж: 8 лет 2 месяца 13 дней

Homme (Chang Min & Lee Hyun) - I Was Able To Eat Well

Год выпуска: 2011
Страна: Южная Корея
Жанр: KPop
Продолжительность: 03:44
Доп. информация:
Homme - дует, состоящих из Чан Мина (2AM) и Ли Хёна (8eight)
I Was Able To Eat Well - их первый совместный сингл.
Мальчики смогли показать в клипе не только свои вокальные данные, но и... мррррррр
( в общем вас ждет приятный сюрприз )
Перевод, тайминг, оформление - amaneshka
ОБЯЗАТЕЛЬНО УСТАНОВИТЕ ШРИФТЫ!!!
Video: MPEG4 Video (H264) 1280x720 [Video]
Audio: AAC 44100Hz stereo 1411Kbps [Audio]
Format : MPEG-4
Format profile : Base Media / Version 2
Codec ID : mp42
File size : 56.9 MiB
Duration : 3mn 46s
Overall bit rate : 2 107 Kbps
Encoded date : UTC 2010-07-29 05:31:36
Tagged date : UTC 2010-07-29 05:31:36
gsst : 0
gstd : 226383
gssd : B4A7DD2C5HH1311234693337207
gshh : v5.cache7.c.youtube.com
Video #1
ID : 1
Format : AVC
Format/Info : Advanced Video Codec
Format profile : High@L3.1
Format settings, CABAC : No
Format settings, ReFrames : 1 frame
Codec ID : avc1
Codec ID/Info : Advanced Video Coding
Duration : 3mn 46s
Bit rate mode : Variable
Bit rate : 1 974 Kbps
Maximum bit rate : 3 967 Kbps
Width : 1 076 pixels
Height : 720 pixels
Display aspect ratio : 1.494
Frame rate mode : Variable
Frame rate : 29.970 fps
Minimum frame rate : 23.810 fps
Maximum frame rate : 30.303 fps
Original frame rate : 30.000 fps
Resolution : 24 bits
Colorimetry : 4:2:0
Scan type : Progressive
Bits/(Pixel*Frame) : 0.085
Stream size : 53.3 MiB (94%)
Encoded date : UTC 1970-01-01 00:00:00
Tagged date : UTC 2010-07-29 05:31:40
Audio #2
ID : 2
Format : AAC
Format/Info : Advanced Audio Codec
Format version : Version 4
Format profile : LC
Format settings, SBR : No
Codec ID : 40
Duration : 3mn 46s
Bit rate mode : Variable
Bit rate : 128 Kbps
Maximum bit rate : 182 Kbps
Channel(s) : 2 channels
Channel positions : L R
Sampling rate : 44.1 KHz
Resolution : 16 bits
Stream size : 3.44 MiB (6%)
Title : (C) 2007 Google Inc. v08.13.2007.
Encoded date : UTC 2010-07-29 05:31:39
Tagged date : UTC 2010-07-29 05:31:40
Скорость у меня маленькая, но раздаю круглые сутки!

Другие мои переводы:
здесь http://rutracker.org/forum/tracker.php?rid=21037789
и здесь http://rutracker.org/forum/tracker.php?rid=6489857
Не забывайте говорить Спасибо. Не уходите с раздачи!   
Торрент: Зарегистрирован [07 июн 2018, 22:32] Для скачивания .torrent
необходима регистрация
Или скачать с помощью
MediaGet
Статус:
Проверен
 
.torrent скачан: 0 раз
Хэш: eca7efb3fa797552467b957e3b163087a09123d2
Размер: 57.3 МБ (60 083 248 байт)
   Стать Автором раздачи
   
Цитата
  • Похожие торренты
    Ответы
    Просмотры
    Последнее сообщение

Вернуться в VMV и др. ролики

Кто сейчас на конференции

Сейчас эту тему просматривают: нет зарегистрированных пользователей и гости: 1