[K-TV] "Девочки идут в Школу" (SNSD) / MNet Girls go to School (SNSD) [9/9] [KOR+SUB] [Корея, 2007, документальное кино, TVRip]

 Статистика раздачи 
Размер: 1.93 ГБ   |  Зарегистрирован: 07 июн 2018, 22:31   |   .torrent скачан: 0 раз
Сидеров: 0  [ 0 байт/сек ]     Личеров: 0  [ 0 байт/сек ]  
  
Аватара пользователя
 
Раздал: 0 байт
Скачал: 0 байт
Ратио: Inf.
Сообщения: 114865
Стаж: 8 лет 2 месяца 7 дней

"Девочки идут в Школу" (SNSD) / MNet Girls go to School (SNSD)
Год выпуска: 2007
Страна: Южная Корея
Жанр: документальное кино
Продолжительность: 9 серий по 20 минут
Перевод: Субтитры
Русские субтитры: есть
Описание:
Вы хотите знать, как SNSD начинали свою карьеру?
Какими они были во время своего дебюта?
Действие в "Girls go to School' начинается за месяц до их официального дебюта и показывает первые шаги SNSD в мире корейской музыкальной индустрии.
Первые победы и поражения, радость и слёзы, первые ссоры и примирения...
Доп. информация: Перевод фансаб-группы "G9"
Качество: TVRip
Формат: AVI
Видео кодек: H.264
Аудио кодек: MP3
Видео: X264, 656x480, 4:3, 1208 Кбит/сек, 25,000 кадров/сек
Аудио: MP3, 128 Кбит/сек, 44,1 КГц, 2 канала
Общее
Формат : AVI
Формат/Информация : Audio Video Interleave
Размер файла : 209 Мбайт
Продолжительность : 21 м.
Общий поток : 1348 Кбит/сек
Видео
Идентификатор : 0
Формат : AVC
Формат/Информация : Advanced Video Codec
Профиль формата : Main@L3.0
Параметр CABAC формата : Да
Параметр ReFrames формата : 1 кадр
Идентификатор кодека : X264
Идентификатор кодека/Информация : XiWave GNU GPL x264 MPEG-4
Продолжительность : 21 м.
Битрейт : 1208 Кбит/сек
Ширина : 656 пикселей
Высота : 480 пикселей
Соотношение сторон : 4:3
Частота кадров : 25,000 кадров/сек
Цветовое пространство : YUV
Субдискретизация насыщенности : 4:2:0
Битовая глубина : 8 бит
Тип развёртки : Прогрессивная
Бит/(Пиксели*Кадры) : 0.153
Размер потока : 187 Мбайт (90%)
Аудио
Идентификатор : 1
Формат : MPEG Audio
Версия формата : Version 1
Профиль формата : Layer 3
Идентификатор кодека : 55
Идентификатор кодека/Подсказка : MP3
Продолжительность : 21 м.
Вид битрейта : Постоянный
Битрейт : 128 Кбит/сек
Каналы : 2 канала
Частота : 44,1 КГц
Метод сжатия : С потерями
Размер потока : 19,8 Мбайт (9%)
Выравнивание : Разделение по промежуткам
Продолжительность промежутка : 26 мс. (0,65 видеокадр)
Время предзагрузки промежутка : 139 мс.
Библиотека кодирования : LAME3.98.2
Шоу залито полностью!
Не забывайте говорить Спасибо. Не уходите с раздачи!   
Торрент: Зарегистрирован [07 июн 2018, 22:31] Для скачивания .torrent
необходима регистрация
Или скачать с помощью
MediaGet
Статус:
Проверен
 
.torrent скачан: 0 раз
Хэш: cb133cf16cf6b2435c719bf34dcfaee32821b127
Размер: 1.93 ГБ (2 073 520 454 байт)
   Стать Автором раздачи
   
Цитата
  • Похожие торренты
    Ответы
    Просмотры
    Последнее сообщение

Вернуться в VMV и др. ролики

Кто сейчас на конференции

Сейчас эту тему просматривают: нет зарегистрированных пользователей и гости: 1